Va-банк / Runner Runner (Брэд Фурман / Brad Furman) [2013, США, триллер, драма, криминал, BDRip 1080p] Dub + Ukr Dub + Original Eng + Sub Rus, Ukr, Eng

Ответить на тему
 
Автор Сообщение

user ®

Стаж: 7 лет 7 месяцев

Сообщений: 20008

Пост Пост: #1 от 25-Янв-2014 20:35

[Цитировать]

Va-банк / Runner Runner- Страна: США
Жанр: триллер, драма, криминал
Год выпуска: 2013
Продолжительность: 01:31:31
Перевод: Профессиональный (дублированный)
Cубтитры: русские, украинские, английские
Оригинальная аудиодорожка: английский
Режиссер: Брэд Фурман / Brad Furman
В ролях: Джастин Тимберлэйк (Richie Furst), Бен Аффлек (Ivan Block), Джемма Артертон (Rebecca Shafran), Энтони Маки (Agent Shavers), Майкл Эспер (Billy «Pet» Petricoff), Оливер Купер (Andrew Cronin), Кристиан Джордж (Wilson), Юл Васкез (Delegate Herrera), Джон Хёрд (Harry Furst), Джеймс Молина (Esteban), Луис Ломбарди (Archie), Винсент Лареска (Sergeant Barrancas).
Описание: Главный герой фильма Рич Фьюрст имел довольно хорошую карьеру на Уолл-стрит, однако, на его деятельность в сфере азартных игр, негативно отреагировал глава Принстонского университета, где он учился, и почти одновременно случилась другая неприятность – Ричи проиграл неизвестному мошеннику приличную сумму денег в онлайн-игре. Необходимость оплачивать обучение заставила его ехать в Коста-Рику, чтобы обсудить проблему с владельцем сайта, и крупного игорного мирового бизнеса Иваном Блоком. Владелец сети веб-сайтов с радушием встречает молодого человека, так как наслышан о его игровых способностях, и предлагает ему высокооплачиваемую работу. Иван быстро разбирается с проблемой, узнав благодаря статистике, что программное обеспечение игровых сайтов было настроено на получение прибыли организатора. Ричи увлекается любовницей Ивана Ребеккой, и принимает предложение, хотя и осознает, что деятельность в некоторых аспектах противоречит закону. Это же ему сообщает и похитивший его агент ФБР, который долго не может набрать против Ивана доказательную базу. Однако Рич старается помочь своему покровителю, даже не подозревая, к чему это приведет в финале...
Тип релиза: BDRip 1080p
Контейнер: MKV
Видео: 1920x800 (2.40:1), 23.976 fps, 15500 kbps avg, 0.421 bit/pixel
Аудио 1: 48 kHz, DTS, 3/2 (L,C,R,l,r) + LFE ch, 768.00 kbps avg Russian
Аудио 2: 48 kHz, АС3, 3/2 (L,C,R,l,r) + LFE ch, 448.00 kbps avg Ukrainian
Аудио 3: 48 kHz, DTS, 3/2 (L,C,R,l,r) + LFE ch, 1509.00 kbps avg English

Скриншоты

MediaInfo

Общее
Формат : Matroska
Версия формата : Version 4 / Version 2
Размер файла : 11,7 Гбайт
Продолжительность : 1 ч. 31 м.
Общий поток : 18,2 Мбит/сек
Дата кодирования : UTC 2014-01-25 11:45:36
Программа кодирования : mkvmerge v6.6.0 ('The Edge Of The In Between') built on Dec 1 2013 17:55:00
Библиотека кодирования : libebml v1.3.0 + libmatroska v1.4.1
Видео
Идентификатор : 1
Формат : AVC
Формат/Информация : Advanced Video Codec
Профиль формата : High@L4.1
Параметр CABAC формата : Да
Параметр ReFrames формата : 5 кадров
Идентификатор кодека : V_MPEG4/ISO/AVC
Продолжительность : 1 ч. 31 м.
Битрейт : 15,5 Мбит/сек
Ширина : 1920 пикселей
Высота : 800 пикселей
Соотношение сторон : 2,40:1
Режим частоты кадров : Постоянный
Частота кадров : 23,976 кадра/сек
Цветовое пространство : YUV
Субдискретизация насыщенности : 4:2:0
Битовая глубина : 8 бит
Тип развёртки : Прогрессивная
Бит/(Пиксели*Кадры) : 0.421
Размер потока : 9,68 Гбайт (83%)
Библиотека кодирования : x264 core 138 r2356 a1d3d17
Настройки программы : cabac=1 / ref=5 / deblock=1:-3:-3 / analyse=0x3:0x113 / me=umh / subme=10 / psy=1 / psy_rd=1.00:0.05 / mixed_ref=1 / me_range=32 / chroma_me=1 / trellis=2 / 8x8dct=1 / cqm=0 / deadzone=21,11 / fast_pskip=0 / chroma_qp_offset=-2 / threads=18 / lookahead_threads=1 / sliced_threads=0 / nr=0 / decimate=1 / interlaced=0 / bluray_compat=0 / constrained_intra=0 / bframes=6 / b_pyramid=2 / b_adapt=2 / b_bias=0 / direct=3 / weightb=1 / open_gop=0 / weightp=2 / keyint=250 / keyint_min=23 / scenecut=40 / intra_refresh=0 / rc=2pass / mbtree=0 / bitrate=15520 / ratetol=1.0 / qcomp=0.70 / qpmin=0 / qpmax=69 / qpstep=4 / cplxblur=20.0 / qblur=0.5 / ip_ratio=1.40 / pb_ratio=1.30 / aq=2:0.90
Язык : English
Default : Да
Forced : Нет
Аудио #1
Идентификатор : 2
Формат : DTS
Формат/Информация : Digital Theater Systems
Режим : 16
Параметр Endianness формата : Big
Идентификатор кодека : A_DTS
Продолжительность : 1 ч. 31 м.
Вид битрейта : Постоянный
Битрейт : 768 Кбит/сек
Каналы : 6 каналов
Расположение каналов : Front: L C R, Side: L R, LFE
Частота : 48,0 КГц
Битовая глубина : 24 бит
Метод сжатия : С потерями
Размер потока : 503 Мбайт (4%)
Язык : Russian
Default : Да
Forced : Нет
Аудио #2
Идентификатор : 3
Формат : AC-3
Формат/Информация : Audio Coding 3
Расширение режима : CM (complete main)
Параметр Endianness формата : Big
Идентификатор кодека : A_AC3
Продолжительность : 1 ч. 31 м.
Вид битрейта : Постоянный
Битрейт : 448 Кбит/сек
Каналы : 6 каналов
Расположение каналов : Front: L C R, Side: L R, LFE
Частота : 48,0 КГц
Битовая глубина : 16 бит
Метод сжатия : С потерями
Размер потока : 293 Мбайт (2%)
Язык : Ukrainian
Default : Нет
Forced : Нет
Аудио #3
Идентификатор : 4
Формат : DTS
Формат/Информация : Digital Theater Systems
Режим : 16
Параметр Endianness формата : Big
Идентификатор кодека : A_DTS
Продолжительность : 1 ч. 31 м.
Вид битрейта : Постоянный
Битрейт : 1509 Кбит/сек
Каналы : 6 каналов
Расположение каналов : Front: L C R, Side: L R, LFE
Частота : 48,0 КГц
Битовая глубина : 24 бит
Метод сжатия : С потерями
Размер потока : 988 Мбайт (8%)
Язык : English
Default : Нет
Forced : Нет
Текст #1
Идентификатор : 5
Формат : UTF-8
Идентификатор кодека : S_TEXT/UTF8
Идентификатор кодека/Информация : UTF-8 Plain Text
Заголовок : forced
Язык : Russian
Default : Да
Forced : Нет
Текст #2
Идентификатор : 6
Формат : UTF-8
Идентификатор кодека : S_TEXT/UTF8
Идентификатор кодека/Информация : UTF-8 Plain Text
Заголовок : full
Язык : Russian
Default : Нет
Forced : Нет
Текст #3
Идентификатор : 7
Формат : UTF-8
Идентификатор кодека : S_TEXT/UTF8
Идентификатор кодека/Информация : UTF-8 Plain Text
Заголовок : full
Язык : Ukrainian
Default : Нет
Forced : Нет
Текст #4
Идентификатор : 8
Формат : UTF-8
Идентификатор кодека : S_TEXT/UTF8
Идентификатор кодека/Информация : UTF-8 Plain Text
Заголовок : forced
Язык : English
Default : Нет
Forced : Нет
Текст #5
Идентификатор : 9
Формат : UTF-8
Идентификатор кодека : S_TEXT/UTF8
Идентификатор кодека/Информация : UTF-8 Plain Text
Заголовок : full
Язык : English
Default : Нет
Forced : Нет
Текст #6
Идентификатор : 10
Формат : UTF-8
Идентификатор кодека : S_TEXT/UTF8
Идентификатор кодека/Информация : UTF-8 Plain Text
Заголовок : sdh
Язык : English
Default : Нет
Forced : Нет
Меню
00:00:00.000 : en:00:00:00.000
00:03:08.814 : en:00:03:08.814
00:05:47.973 : en:00:05:47.973
00:08:43.857 : en:00:08:43.857
00:11:16.384 : en:00:11:16.384
00:13:34.647 : en:00:13:34.647
00:15:13.913 : en:00:15:13.913
00:16:55.765 : en:00:16:55.765
00:19:46.602 : en:00:19:46.602
00:24:24.505 : en:00:24:24.505
00:27:07.334 : en:00:27:07.334
00:31:01.943 : en:00:31:01.943
00:32:59.811 : en:00:32:59.811
00:36:30.605 : en:00:36:30.605
00:38:40.026 : en:00:38:40.026
00:43:36.906 : en:00:43:36.906
00:46:38.087 : en:00:46:38.087
00:48:37.706 : en:00:48:37.706
00:53:03.555 : en:00:53:03.555
00:54:38.609 : en:00:54:38.609
00:57:18.644 : en:00:57:18.644
01:00:38.885 : en:01:00:38.885
01:03:17.669 : en:01:03:17.669
01:08:48.833 : en:01:08:48.833
01:13:04.797 : en:01:13:04.797
01:16:45.935 : en:01:16:45.935
01:21:22.961 : en:01:21:22.961
01:25:32.502 : en:01:25:32.502

Дополнительно

Сохранены чаптеры как на Blu-Ray
Звук BD CEE
Скачать

Скачать торрент!

Как скачивать? · Что такое торрент? · Рейтинг и ограничения

Сайт не распространяет и не хранит электронные версии произведений, а лишь предоставляет доступ к создаваемому пользователями каталогу ссылок на торрент-файлы, которые содержат только списки хеш-сумм

[Профиль] [ЛС]
Показать сообщения:    
Ответить на тему

Текущее время: Сегодня 18:08

Часовой пояс: GMT + 4



Вы не можете начинать темы
Вы не можете отвечать на сообщения
Вы не можете редактировать свои сообщения
Вы не можете удалять свои сообщения
Вы не можете голосовать в опросах
Вы не можете прикреплять файлы к сообщениям
Вы не можете скачивать файлы