Приказано уничтожить / Executive Decision (Стюарт Бейрд / Stuart Baird) [1996, США, боевик, триллер, приключения, BDRip 720p] 2x Dub + MVO + AVO (Гаврилов) + Original eng + Sub rus, eng

Ответить на тему
 
Автор Сообщение

user ®

Стаж: 7 лет 7 месяцев

Сообщений: 20008

Пост Пост: #1 от 25-Янв-2014 13:20

[Цитировать]

Приказано уничтожить / Executive Decision
Страна: США
Жанр: боевик, триллер, приключения
Год выпуска: 1996
Продолжительность: 02:12:41
Перевод#1: Профессиональный (дублированный) | R5
Перевод#2: Профессиональный (дублированный) | Варус Видео
Перевод#3: Профессиональный (многоголосый закадровый) | ТК Россия
Перевод#4: Авторский (одноголосый закадровый), А. Гаврилов
Cубтитры: русские, английские
Оригинальная аудиодорожка: английский
Режиссер: Стюарт Бейрд / Stuart Baird
В ролях: Курт Рассел, Стивен Сигал, Холли Берри, Дэвид Суше, Джон Легуизамо, Оливер Плэтт, Джо Мортон, Б.Д. Вонг, Лен Кариу
Описание: В воздухе террористами захвачен "Боинг" с пассажирами на борту. Они требуют освободить из тюрьмы их лидера. Группе специального назначения предстоит найти и обезвредить находящуюся на боевом взводе бомбу, способную уничтожить все население восточных прибрежных штатов. Задача усложняется еще и тем, что всю операцию предстоит сделать скрытно и в отсутствии радиосвязи с землей…

Тип релиза: BDRip 720p (от CHD) | sample
Контейнер: MKV
Видео кодек: x264
Видео: AVC 1280x534 (2.40:1), 23.976 fps, ~6600 Kbps, 0.40 bit/pixel
Аудио #1: Russian AC3 6ch 48kHz 384Kbps | Dub R5
Аудио #2: Russian AC3 2ch 48kHz 192Kbps | Dub Варус Видео
Аудио #3: Russian AC3 2ch 48kHz 192Kbps | MVO ТК Россия
Аудио #4: Russian DTS 6ch 48kHz 1510Kbps | AVO Гаврилов
Аудио #5: English AC3 6ch 48kHz 640Kbps | Original
Формат субтитров: softsub (SRT)
Главы: есть, подписаны

Дополнительно

Многоголосый перевод был записан с канала РЕН ТВ с эфира от 17.04.2011. Перевод по заказу телеканала "Россия", 2006г. Дорожка отреставрирована, теперь тут полноценная стерео-панорама
Чистый голос Гаврилова от

MediaInfo

General
Complete name : E:\...\Executive.Decision.1996.720p.BluRay.x264.4xRus.Eng-CHD.mkv
Format : Matroska
Format version : Version 2
File size : 8.82 GiB
Duration : 2h 12mn
Overall bit rate : 9 513 Kbps
Movie name : Executive.Decision.1996.720p.BluRay.x264.4xRus.Eng-CHD
Encoded date : UTC 2014-01-19 05:09:00
Writing application : mkvmerge v6.5.0 ('Isn't she lovely') built on Oct 20 2013 12:50:05
Writing library : libebml v1.3.0 + libmatroska v1.4.1
Video
ID : 1
Format : AVC
Format/Info : Advanced Video Codec
Format profile : High@L4.1
Format settings, CABAC : Yes
Format settings, ReFrames : 12 frames
Codec ID : V_MPEG4/ISO/AVC
Duration : 2h 12mn
Bit rate : 6 594 Kbps
Width : 1 280 pixels
Height : 534 pixels
Display aspect ratio : 2.40:1
Frame rate mode : Constant
Frame rate : 23.976 fps
Color space : YUV
Chroma subsampling : 4:2:0
Bit depth : 8 bits
Scan type : Progressive
Bits/(Pixel*Frame) : 0.402
Stream size : 5.94 GiB (67%)
Title : Executive Decision (1996)
Writing library : x264 core 116 r2057 0ba8a9c
Encoding settings : cabac=1 / ref=12 / deblock=1:-3:-3 / analyse=0x3:0x113 / me=umh / subme=10 / psy=1 / psy_rd=1.05:0.10 / mixed_ref=1 / me_range=32 / chroma_me=1 / trellis=2 / 8x8dct=1 / cqm=2 / deadzone=21,11 / fast_pskip=0 / chroma_qp_offset=-2 / threads=12 / sliced_threads=0 / nr=0 / decimate=1 / interlaced=0 / bluray_compat=0 / constrained_intra=0 / bframes=6 / b_pyramid=2 / b_adapt=2 / b_bias=0 / direct=3 / weightb=1 / open_gop=0 / weightp=2 / keyint=250 / keyint_min=23 / scenecut=40 / intra_refresh=0 / rc_lookahead=40 / rc=2pass / mbtree=1 / bitrate=6594 / ratetol=1.0 / qcomp=0.60 / qpmin=1 / qpmax=63 / qpstep=4 / cplxblur=20.0 / qblur=0.5 / vbv_maxrate=40000 / vbv_bufsize=30000 / nal_hrd=none / ip_ratio=1.40 / aq=2:1.00
Language : English
Default : Yes
Forced : No
Audio #1
ID : 2
Format : AC-3
Format/Info : Audio Coding 3
Mode extension : CM (complete main)
Format settings, Endianness : Big
Codec ID : A_AC3
Duration : 2h 12mn
Bit rate mode : Constant
Bit rate : 384 Kbps
Channel(s) : 6 channels
Channel positions : Front: L C R, Side: L R, LFE
Sampling rate : 48.0 KHz
Bit depth : 16 bits
Compression mode : Lossy
Stream size : 364 MiB (4%)
Title : Dub R5
Language : Russian
Default : Yes
Forced : No
Audio #2
ID : 3
Format : AC-3
Format/Info : Audio Coding 3
Mode extension : CM (complete main)
Format settings, Endianness : Big
Codec ID : A_AC3
Duration : 2h 12mn
Bit rate mode : Constant
Bit rate : 192 Kbps
Channel(s) : 2 channels
Channel positions : Front: L R
Sampling rate : 48.0 KHz
Bit depth : 16 bits
Compression mode : Lossy
Stream size : 182 MiB (2%)
Title : Dub Varus
Language : Russian
Default : No
Forced : No
Audio #3
ID : 4
Format : AC-3
Format/Info : Audio Coding 3
Mode extension : CM (complete main)
Format settings, Endianness : Big
Codec ID : A_AC3
Duration : 2h 12mn
Bit rate mode : Constant
Bit rate : 192 Kbps
Channel(s) : 2 channels
Channel positions : Front: L R
Sampling rate : 48.0 KHz
Bit depth : 16 bits
Compression mode : Lossy
Stream size : 182 MiB (2%)
Title : MVO TK Russia
Language : Russian
Default : No
Forced : No
Audio #4
ID : 5
Format : DTS
Format/Info : Digital Theater Systems
Codec ID : A_DTS
Duration : 2h 12mn
Bit rate mode : Constant
Bit rate : 1 510 Kbps
Channel(s) : 6 channels
Channel positions : Front: L C R, Side: L R, LFE
Sampling rate : 48.0 KHz
Bit depth : 24 bits
Compression mode : Lossy
Stream size : 1.40 GiB (16%)
Title : AVO Gavrilov
Language : Russian
Default : No
Forced : No
Audio #5
ID : 6
Format : AC-3
Format/Info : Audio Coding 3
Mode extension : CM (complete main)
Format settings, Endianness : Big
Codec ID : A_AC3
Duration : 2h 12mn
Bit rate mode : Constant
Bit rate : 640 Kbps
Channel(s) : 6 channels
Channel positions : Front: L C R, Side: L R, LFE
Sampling rate : 48.0 KHz
Bit depth : 16 bits
Compression mode : Lossy
Stream size : 607 MiB (7%)
Title : Original
Language : English
Default : No
Forced : No
Text #1
ID : 7
Format : UTF-8
Codec ID : S_TEXT/UTF8
Codec ID/Info : UTF-8 Plain Text
Language : Russian
Default : No
Forced : No
Text #2
ID : 8
Format : UTF-8
Codec ID : S_TEXT/UTF8
Codec ID/Info : UTF-8 Plain Text
Language : English
Default : No
Forced : No
Menu
00:00:00.000 : en:Credits, Mission In Trieste
00:04:51.666 : en:Ready To Solo?
00:06:45.822 : en:Abduction In Cyprus
00:10:06.939 : en:Fireworks In London
00:10:51.609 : en:Taking Over Flight 343
00:14:42.172 : en:Brave And Totally Unnecessary
00:16:51.635 : en:Grant's Theory: Revenge
00:22:37.230 : en:Ready For A Plan Ride?
00:25:40.497 : en:The Remora F117X
00:32:36.955 : en:Link Established
00:39:31.035 : en:Fatal Turbulence
00:44:33.379 : en:The Co-Pilot's Inspection
00:49:23.251 : en:Sometime For Strategy
00:53:17.611 : en:Installing Eyes And Ears
00:59:28.606 : en:Looking For Nagi Hassan
01:03:58.835 : en:Vanishing Act
01:07:04.395 : en:Sen. Mavro's Request
01:08:10.252 : en:A Bigger Target Than Thought
01:10:50.621 : en:"What Do You Want Me To Do?"
01:14:51.236 : en:Siege Aloft
01:20:16.978 : en:On The Way To A Glorious Victory
01:22:18.391 : en:The Vengeance Of Allah
01:24:41.117 : en:Phone Call To A Player
01:31:11.841 : en:Target Identified
01:34:18.944 : en:Close Calls
01:41:14.401 : en:Mavros Plays His Part
01:43:28.535 : en:They Get The Message
01:46:41.937 : en:The Waiting Game
01:50:02.679 : en:Grant Makes His Move
01:51:12.707 : en:The Sleeper Revealed
01:52:38.418 : en:Mayday
01:54:56.890 : en:Hassan's Final Gambit
01:56:51.963 : en:Getting Ahold Of The Plane
01:58:09.082 : en:By The Book
02:01:49.802 : en:Touchdown
02:05:22.389 : en:"As Long As You're Not Flying"
02:08:00.214 : en:End Credits

Скриншоты

source vs CHD




Скачать

Скачать торрент!

Как скачивать? · Что такое торрент? · Рейтинг и ограничения

Сайт не распространяет и не хранит электронные версии произведений, а лишь предоставляет доступ к создаваемому пользователями каталогу ссылок на торрент-файлы, которые содержат только списки хеш-сумм

[Профиль] [ЛС]
Показать сообщения:    
Ответить на тему

Текущее время: Сегодня 02:20

Часовой пояс: GMT + 4



Вы не можете начинать темы
Вы не можете отвечать на сообщения
Вы не можете редактировать свои сообщения
Вы не можете удалять свои сообщения
Вы не можете голосовать в опросах
Вы не можете прикреплять файлы к сообщениям
Вы не можете скачивать файлы