Служители закона / U.S. Marshals (Стюарт Бейрд / Stuart Baird) [1998 г., США, боевик, триллер, криминал, BDRip 1080p] 2х Dub (R5, Варус Видео) + MVO (НТВ) + 3х AVO (Гаврилов, Живов, Кашкин) + Original (Eng) + Sub (Rus, Eng)

Ответить на тему
 
Автор Сообщение

user ®

Стаж: 7 лет 7 месяцев

Сообщений: 20008

Пост Пост: #1 от 25-Янв-2014 13:20

[Цитировать]

Служители закона / U.S. Marshals«Полицейский, которого не остановить, возвращается. Но на этот раз он преследует не только беглеца»- Страна: США
Жанр: боевик, триллер, криминал
Год выпуска: 1998
Продолжительность: 02:11:06-Перевод №1: Профессиональный (полное дублирование) R5
Перевод №2: Профессиональный (полное дублирование) Варус Видео
Перевод №3: Профессиональный (многоголосый, закадровый) НТВ
Перевод №4: Авторский (одноголосый, закадровый) А. Кашкин
Перевод №5: Авторский (одноголосый, закадровый) А. Гаврилов
Перевод №6: Авторский (одноголосый, закадровый) Ю. Живов
Оригинальная аудиодорожка: английский
Cубтитры: Russian, English-Режиссер: Стюарт Бейрд / Stuart Baird
В ролях: Томми Ли Джонс, Уэсли Снайпс, Роберт Дауни мл., Джо Пантольяно, Дэниэл Робак, Том Вуд, ЛаТаня Ричардсон, Ирен Жакоб, Кейт Неллиган, Патрик Мэлахайд-Описание: Самолет, перевозивший заключенных, терпит аварию и совершает вынужденную посадку. Воспользовавшись ситуацией, из-под конвоя бежит особо опасный арестант — бывший секретный агент, обвиненный в убийстве двух других агентов. Но не только полиция и группа Джерарда идут по его следу; беглец представляет интерес и кое для кого еще. Он слишком много знает, и этот кое-кто желал бы его убрать…-IMDB | КиноПоиск | Сэмпл-Качество видео: BDRip 1080p | исх. US.Marshals.1998.BluRay.1080p.AVC.DTS-HDMA5.1-TTG
Формат видео: MKV-Видео: AVC, 1920x1080 (16:9), 23.976 fps, 16.3 Mbps (0.329 bit/pixel)
Аудио №1: 48 kHz, AC3, 3/2 (L,C,R,l,r) + LFE ch, ~384 kbps avg | Профессиональный (полное дублирование) R5
Аудио №2: 48 kHz, AC3, 2/0 (L,R) ch, ~192 kbps avg | Профессиональный (полное дублирование) Варус Видео
Аудио №3: 48 kHz, AC3, 2/0 (L,R) ch, ~192 kbps avg | Профессиональный (многоголосый, закадровый) НТВ
Аудио №4: 48 kHz, AC3, 2/0 (L,R) ch, ~192 kbps avg | Авторский (одноголосый, закадровый) А. Кашкин
Аудио №5: 48 kHz/24-bit, DTS, 3/2 (L,C,R,l,r) + LFE ch, ~1510.00 kbps avg | Авторский (одноголосый, закадровый) А. Гаврилов
Аудио №6: 48 kHz/24-bit, DTS, 3/2 (L,C,R,l,r) + LFE ch, ~1510.00 kbps avg | Авторский (одноголосый, закадровый) Ю. Живов
Аудио №7: 48 kHz/24-bit, DTS, 3/2 (L,C,R,l,r) + LFE ch, ~1510.00 kbps avg | English
Аудио №8: 48 kHz, AC3, 2/0 (L,R) ch, ~192 kbps avg | English commentary-

MediaInfo

General
Unique ID : 204983102383342506205692468387045338065 (0x9A364F3B37D93DCB97B3AB5B055A6BD1)
Complete name : D:\Фильмы\U.S.Marshals.1998.1080p.BluRay.x264.6xRus.Eng.HDCLUB.mkv
Format : Matroska
Format version : Version 2
File size : 20.6 GiB
Duration : 2h 11mn
Overall bit rate : 22.5 Mbps
Movie name : U.S. Marshals (1998) - Release for HDCLUB
Encoded date : UTC 2013-12-10 12:42:19
Writing application : mkvmerge v5.7.0 ('The Whirlwind') built on Jul 8 2012 20:08:51
Writing library : libebml v1.2.3 + libmatroska v1.3.0
Video
ID : 1
Format : AVC
Format/Info : Advanced Video Codec
Format profile : High@L4.1
Format settings, CABAC : Yes
Format settings, ReFrames : 4 frames
Codec ID : V_MPEG4/ISO/AVC
Duration : 2h 11mn
Bit rate : 16.4 Mbps
Width : 1 920 pixels
Height : 1 080 pixels
Display aspect ratio : 16:9
Frame rate mode : Constant
Frame rate : 23.976 fps
Color space : YUV
Chroma subsampling : 4:2:0
Bit depth : 8 bits
Scan type : Progressive
Bits/(Pixel*Frame) : 0.329
Stream size : 15.0 GiB (73%)
Writing library : x264 core 116 r2057 0ba8a9c
Encoding settings : cabac=1 / ref=4 / deblock=1:-3:-3 / analyse=0x3:0x133 / me=umh / subme=10 / psy=1 / psy_rd=1.00:0.00 / mixed_ref=1 / me_range=32 / chroma_me=1 / trellis=2 / 8x8dct=1 / cqm=0 / deadzone=21,11 / fast_pskip=0 / chroma_qp_offset=-2 / threads=18 / sliced_threads=0 / nr=0 / decimate=0 / interlaced=0 / bluray_compat=0 / constrained_intra=0 / bframes=7 / b_pyramid=2 / b_adapt=2 / b_bias=0 / direct=3 / weightb=1 / open_gop=0 / weightp=2 / keyint=250 / keyint_min=23 / scenecut=40 / intra_refresh=0 / rc_lookahead=40 / rc=crf / mbtree=0 / crf=19.0 / qcomp=0.65 / qpmin=0 / qpmax=40 / qpstep=4 / vbv_maxrate=50000 / vbv_bufsize=50000 / crf_max=0.0 / nal_hrd=none / ip_ratio=1.25 / pb_ratio=1.25 / aq=1:0.65
Language : English
Default : Yes
Forced : No
Audio #1
ID : 2
Format : AC-3
Format/Info : Audio Coding 3
Mode extension : CM (complete main)
Format settings, Endianness : Big
Codec ID : A_AC3
Duration : 2h 11mn
Bit rate mode : Constant
Bit rate : 384 Kbps
Channel count : 6 channels
Channel positions : Front: L C R, Side: L R, LFE
Sampling rate : 48.0 KHz
Bit depth : 16 bits
Compression mode : Lossy
Stream size : 360 MiB (2%)
Title : Дубляж, R5
Language : Russian
Default : Yes
Forced : No
Audio #2
ID : 3
Format : AC-3
Format/Info : Audio Coding 3
Mode extension : CM (complete main)
Format settings, Endianness : Big
Codec ID : A_AC3
Duration : 2h 11mn
Bit rate mode : Constant
Bit rate : 192 Kbps
Channel count : 2 channels
Channel positions : Front: L R
Sampling rate : 48.0 KHz
Bit depth : 16 bits
Compression mode : Lossy
Stream size : 180 MiB (1%)
Title : Дубляж, Варус Видео
Language : Russian
Default : No
Forced : No
Audio #3
ID : 4
Format : AC-3
Format/Info : Audio Coding 3
Mode extension : CM (complete main)
Format settings, Endianness : Big
Codec ID : A_AC3
Duration : 2h 11mn
Bit rate mode : Constant
Bit rate : 192 Kbps
Channel count : 2 channels
Channel positions : Front: L R
Sampling rate : 48.0 KHz
Bit depth : 16 bits
Compression mode : Lossy
Stream size : 180 MiB (1%)
Title : Многоголосый закадровый, НТВ
Language : Russian
Default : No
Forced : No
Audio #4
ID : 5
Format : AC-3
Format/Info : Audio Coding 3
Mode extension : CM (complete main)
Format settings, Endianness : Big
Codec ID : A_AC3
Duration : 2h 11mn
Bit rate mode : Constant
Bit rate : 192 Kbps
Channel count : 2 channels
Channel positions : Front: L R
Sampling rate : 48.0 KHz
Bit depth : 16 bits
Compression mode : Lossy
Stream size : 180 MiB (1%)
Title : Одноголосый закадровый, А. Кашкин
Language : Russian
Default : No
Forced : No
Audio #5
ID : 6
Format : DTS
Format/Info : Digital Theater Systems
Mode : 16
Format settings, Endianness : Big
Codec ID : A_DTS
Duration : 2h 11mn
Bit rate mode : Constant
Bit rate : 1 509 Kbps
Channel count : 6 channels
Channel positions : Front: L C R, Side: L R, LFE
Sampling rate : 48.0 KHz
Bit depth : 24 bits
Compression mode : Lossy
Stream size : 1.38 GiB (7%)
Title : Одноголосый закадровый, А. Гаврилов
Language : Russian
Default : No
Forced : No
Audio #6
ID : 7
Format : DTS
Format/Info : Digital Theater Systems
Mode : 16
Format settings, Endianness : Big
Codec ID : A_DTS
Duration : 2h 11mn
Bit rate mode : Constant
Bit rate : 1 509 Kbps
Channel count : 6 channels
Channel positions : Front: L C R, Side: L R, LFE
Sampling rate : 48.0 KHz
Bit depth : 24 bits
Compression mode : Lossy
Stream size : 1.38 GiB (7%)
Title : Одноголосый закадровый, Ю. Живов
Language : Russian
Default : No
Forced : No
Audio #7
ID : 8
Format : DTS
Format/Info : Digital Theater Systems
Mode : 16
Format settings, Endianness : Big
Codec ID : A_DTS
Duration : 2h 11mn
Bit rate mode : Constant
Bit rate : 1 509 Kbps
Channel count : 6 channels
Channel positions : Front: L C R, Side: L R, LFE
Sampling rate : 48.0 KHz
Bit depth : 24 bits
Compression mode : Lossy
Delay relative to video : 11ms
Stream size : 1.38 GiB (7%)
Language : English
Default : No
Forced : No
Audio #8
ID : 9
Format : AC-3
Format/Info : Audio Coding 3
Format profile : Dolby Digital
Mode extension : CM (complete main)
Format settings, Endianness : Big
Codec ID : A_AC3
Duration : 2h 11mn
Bit rate mode : Constant
Bit rate : 192 Kbps
Channel count : 2 channels
Channel positions : Front: L R
Sampling rate : 48.0 KHz
Bit depth : 16 bits
Compression mode : Lossy
Stream size : 180 MiB (1%)
Title : Commentary
Language : English
Default : No
Forced : No
Text #1
ID : 10
Format : UTF-8
Codec ID : S_TEXT/UTF8
Codec ID/Info : UTF-8 Plain Text
Title : R5
Language : Russian
Default : No
Forced : No
Text #2
ID : 11
Format : UTF-8
Codec ID : S_TEXT/UTF8
Codec ID/Info : UTF-8 Plain Text
Language : English
Default : No
Forced : No
Menu
00:00:00.000 : en:00:00:00.000
00:01:35.095 : en:00:01:35.095
00:03:37.426 : en:00:03:37.426
00:07:00.837 : en:00:07:00.837
00:09:51.591 : en:00:09:51.591
00:11:35.570 : en:00:11:35.570
00:13:20.091 : en:00:13:20.091
00:15:37.770 : en:00:15:37.770
00:18:45.499 : en:00:18:45.499
00:21:42.801 : en:00:21:42.801
00:23:38.667 : en:00:23:38.667
00:27:23.559 : en:00:27:23.559
00:31:07.866 : en:00:31:07.866
00:35:55.528 : en:00:35:55.528
00:40:11.200 : en:00:40:11.200
00:42:45.021 : en:00:42:45.021
00:45:10.666 : en:00:45:10.666
00:49:35.347 : en:00:49:35.347
00:52:05.664 : en:00:52:05.664
00:55:05.969 : en:00:55:05.969
00:58:24.418 : en:00:58:24.418
01:02:18.693 : en:01:02:18.693
01:05:19.165 : en:01:05:19.165
01:10:31.352 : en:01:10:31.352
01:13:35.620 : en:01:13:35.620
01:16:48.521 : en:01:16:48.521
01:22:58.932 : en:01:22:58.932
01:25:53.940 : en:01:25:53.940
01:29:53.263 : en:01:29:53.263
01:32:18.241 : en:01:32:18.241
01:34:52.645 : en:01:34:52.645
01:38:04.003 : en:01:38:04.003
01:40:35.780 : en:01:40:35.780
01:42:40.446 : en:01:42:40.446
01:44:20.754 : en:01:44:20.754
01:49:26.143 : en:01:49:26.143
01:54:40.499 : en:01:54:40.499
01:57:28.166 : en:01:57:28.166
02:01:14.517 : en:02:01:14.517
02:03:48.296 : en:02:03:48.296

Дополнительно

Сохранены оригинальные чаптеры с Blu-Ray
За ремукс спасибо Diablo.
Рип от DON

Скриншоты

Скачать

Скачать торрент!

Как скачивать? · Что такое торрент? · Рейтинг и ограничения

Сайт не распространяет и не хранит электронные версии произведений, а лишь предоставляет доступ к создаваемому пользователями каталогу ссылок на торрент-файлы, которые содержат только списки хеш-сумм

[Профиль] [ЛС]
Показать сообщения:    
Ответить на тему

Текущее время: Сегодня 02:16

Часовой пояс: GMT + 4



Вы не можете начинать темы
Вы не можете отвечать на сообщения
Вы не можете редактировать свои сообщения
Вы не можете удалять свои сообщения
Вы не можете голосовать в опросах
Вы не можете прикреплять файлы к сообщениям
Вы не можете скачивать файлы