Как украсть небоскреб / Tower Heist (Бретт Рэтнер / Brett Ratner) [2011 г. Комедия, криминал. BDRip 1080p] Dub + 2x VO + AVO + Sub Rus, Ukr, Eng + Original Eng

Ответить на тему
 
Автор Сообщение

user ®

Стаж: 7 лет 7 месяцев

Сообщений: 20008

Пост Пост: #1 от 25-Янв-2014 03:50

[Цитировать]

Как украсть небоскреб / Tower Heist- Страна: США
Жанр: Комедия, криминал
Год выпуска: 2011
Продолжительность: 01:44:33-Перевод 1: Профессиональный (полное дублирование)
Перевод 2: Одноголосый закадровый - Вадим Белов
Перевод 3: Одноголосый закадровый - Антон Киреев
Перевод 4: Авторский (одноголосый закадровый) - Юрий Немахов
Формат субтитров: srt
Оригинальная аудиодорожка: Английская-Режиссёр: Бретт Рэтнер / Brett Ratner-В ролях: Бен Стиллер, Эдди Мёрфи, Кейси Аффлек, Алан Алда, Мэттью Бродерик, Теа Леони, Майкл Пенья, Стефен Хендерсон, Джадд Хёрш-Описание: Джошу Ковачу не повезло - его поимел злобный финансист, живущий в роскошных апартаментах на верхнем этаже небоскреба. Чтобы вернуть деньги, Джош с друзьями решается на грандиозную кражу со взломом.
Но одним им это не под силу, и они обращаются к матерому преступнику. Дело за малым - шесть новоявленных друзей Джоушена должны пробраться в пентхаус и отыскать 20 миллионов долларов.-Доп. инфо: За приобретение дороги Вадима Белова, спасибо Jiraya87 и пользователям форума e180: safreks, kass, dino crisis, ANISKIN50, zeleniy, Dr. Crane, пуля, bushido, за работу со звуком спасибо Anoobis. За дорожки Антона Киреева и Юрия Немахова спасибо Jiraya87.-Тип релиза: BDRip (EbP)
Контейнер: MKV
Видео: H264 / 16365 kbps / 1920x800 / 23,976 fps / High Profile 4.1
Аудио 1: Русский дубляж / DTS / 5.1 / 768 kbps / 48 kHz
Аудио 2: Русский одноголосый закадровый / DTS / 5.1 / 1536 kbps / 48 kHz (Вадим Белов)
Аудио 3: Русский одноголосый закадровый / DTS / 5.1 / 1536 kbps / 48 kHz (Антон Киреев)
Аудио 4: Русский одноголосый закадровый / DTS / 5.1 / 1536 kbps / 48 kHz (Юрий Немахов)
Аудио 5: Английский / DTS / 5.1 / 1536 kbps / 48 kHz
Cубтитры 1: Русские srt (только надписи и пр.)
Cубтитры 2: Русские srt
Cубтитры 3: Украинские srt
Cубтитры 4: Английские srt
Cубтитры 5: Английские SDH srt
Чаптеры: есть
-

Скриншоты

Source vs Encode

MediaInfo

Полное имя                       : Tower.Heist.2011.Blu-ray.1080p.x264-EbP.4xRus.Eng.mkv
Формат                           : Matroska
Версия формата                   : Version 4 / Version 2
Размер файла                     : 16,9 Гбайт
Продолжительность                : 1 ч. 44 м.
Общий поток                      : 23,2 Мбит/сек
Название фильма                  : HANSMER
Дата кодирования                 : UTC 2014-01-24 17:17:59
Программа кодирования            : mkvmerge v6.7.0 ('Back to the Ground') 32bit built on Jan  8 2014 15:03:17
Библиотека кодирования           : libebml v1.3.0 + libmatroska v1.4.1
Видео
Идентификатор                    : 1
Формат                           : AVC
Формат/Информация                : Advanced Video Codec
Профиль формата                  : High@L4.1
Параметр CABAC формата           : Да
Параметр ReFrames формата        : 5 кадров
Идентификатор кодека             : V_MPEG4/ISO/AVC
Продолжительность                : 1 ч. 44 м.
Битрейт                          : 15,9 Мбит/сек
Ширина                           : 1920 пикселей
Высота                           : 800 пикселей
Соотношение сторон               : 2,40:1
Частота кадров                   : 23,976 кадра/сек
Цветовое пространство            : YUV
Субдискретизация насыщенности    : 4:2:0
Битовая глубина                  : 8 бит
Тип развёртки                    : Прогрессивная
Бит/(Пиксели*Кадры)              : 0.432
Размер потока                    : 11,6 Гбайт (69%)
Заголовок                        : Tower Heist 2011 1080p BluRay x264-EbP
Библиотека кодирования           : x264 core 120 r2146 bcd41db
Настройки программы              : cabac=1 / ref=5 / deblock=1:-3:-3 / analyse=0x3:0x113 / me=tesa / subme=10 / psy=1 / psy_rd=1.00:0.05 / mixed_ref=1 / me_range=16 / chroma_me=1 / trellis=2 / 8x8dct=1 / cqm=0 / deadzone=21,11 / fast_pskip=0 / chroma_qp_offset=-3 / threads=12 / sliced_threads=0 / nr=0 / decimate=0 / interlaced=0 / bluray_compat=0 / constrained_intra=0 / bframes=7 / b_pyramid=2 / b_adapt=2 / b_bias=0 / direct=3 / weightb=1 / open_gop=0 / weightp=2 / keyint=250 / keyint_min=23 / scenecut=40 / intra_refresh=0 / rc=crf / mbtree=0 / crf=18.0 / qcomp=0.60 / qpmin=0 / qpmax=69 / qpstep=4 / ip_ratio=1.40 / pb_ratio=1.30 / aq=1:0.75
Язык                             : English
Коэффициенты матрицы             : BT.709-5, BT.1361, IEC 61966-2-4 709, SMPTE RP177
Аудио #1
Идентификатор                    : 2
Формат                           : DTS
Формат/Информация                : Digital Theater Systems
Идентификатор кодека             : A_DTS
Продолжительность                : 1 ч. 44 м.
Вид битрейта                     : Постоянный
Битрейт                          : 755 Кбит/сек
Каналы                           : 6 каналов
Расположение каналов             : Front: L C R, Side: L R, LFE
Частота                          : 48,0 КГц
Битовая глубина                  : 24 бит
Метод сжатия                     : С потерями
Размер потока                    : 564 Мбайт (3%)
Заголовок                        : Dub
Язык                             : Russian
Аудио #2
Идентификатор                    : 3
Формат                           : DTS
Формат/Информация                : Digital Theater Systems
Идентификатор кодека             : A_DTS
Продолжительность                : 1 ч. 44 м.
Вид битрейта                     : Постоянный
Битрейт                          : 1510 Кбит/сек
Каналы                           : 6 каналов
Расположение каналов             : Front: L C R, Side: L R, LFE
Частота                          : 48,0 КГц
Битовая глубина                  : 24 бит
Метод сжатия                     : С потерями
Размер потока                    : 1,10 Гбайт (7%)
Заголовок                        : V.Belov
Язык                             : Russian
Аудио #3
Идентификатор                    : 4
Формат                           : DTS
Формат/Информация                : Digital Theater Systems
Идентификатор кодека             : A_DTS
Продолжительность                : 1 ч. 44 м.
Вид битрейта                     : Постоянный
Битрейт                          : 1510 Кбит/сек
Каналы                           : 6 каналов
Расположение каналов             : Front: L C R, Side: L R, LFE
Частота                          : 48,0 КГц
Битовая глубина                  : 24 бит
Метод сжатия                     : С потерями
Размер потока                    : 1,10 Гбайт (7%)
Заголовок                        : А.Kireev
Язык                             : Russian
Аудио #4
Идентификатор                    : 5
Формат                           : DTS
Формат/Информация                : Digital Theater Systems
Идентификатор кодека             : A_DTS
Продолжительность                : 1 ч. 44 м.
Вид битрейта                     : Постоянный
Битрейт                          : 1510 Кбит/сек
Каналы                           : 6 каналов
Расположение каналов             : Front: L C R, Side: L R, LFE
Частота                          : 48,0 КГц
Битовая глубина                  : 24 бит
Метод сжатия                     : С потерями
Размер потока                    : 1,10 Гбайт (7%)
Заголовок                        : J.Nemahov
Язык                             : Russian
Аудио #5
Идентификатор                    : 6
Формат                           : DTS
Формат/Информация                : Digital Theater Systems
Идентификатор кодека             : A_DTS
Продолжительность                : 1 ч. 44 м.
Вид битрейта                     : Постоянный
Битрейт                          : 1510 Кбит/сек
Каналы                           : 6 каналов
Расположение каналов             : Front: L C R, Side: L R, LFE
Частота                          : 48,0 КГц
Битовая глубина                  : 24 бит
Метод сжатия                     : С потерями
Размер потока                    : 1,10 Гбайт (7%)
Язык                             : English
Текст #1
Идентификатор                    : 7
Формат                           : UTF-8
Идентификатор кодека             : S_TEXT/UTF8
Идентификатор кодека/Информация  : UTF-8 Plain Text
Заголовок                        : Forced
Язык                             : Russian
Текст #2
Идентификатор                    : 8
Формат                           : UTF-8
Идентификатор кодека             : S_TEXT/UTF8
Идентификатор кодека/Информация  : UTF-8 Plain Text
Язык                             : Russian
Текст #3
Идентификатор                    : 9
Формат                           : UTF-8
Идентификатор кодека             : S_TEXT/UTF8
Идентификатор кодека/Информация  : UTF-8 Plain Text
Язык                             : Ukrainian
Текст #4
Идентификатор                    : 10
Формат                           : UTF-8
Идентификатор кодека             : S_TEXT/UTF8
Идентификатор кодека/Информация  : UTF-8 Plain Text
Язык                             : English
Текст #5
Идентификатор                    : 11
Формат                           : UTF-8
Идентификатор кодека             : S_TEXT/UTF8
Идентификатор кодека/Информация  : UTF-8 Plain Text
Заголовок                        : SDH
Язык                             : English
Меню
00:00:00.000                     : en:Chapter 1
00:03:23.203                     : en:Chapter 2
00:09:20.810                     : en:Chapter 3
00:14:09.599                     : en:Chapter 4
00:19:13.778                     : en:Chapter 5
00:23:41.503                     : en:Chapter 6
00:27:16.468                     : en:Chapter 7
00:32:05.549                     : en:Chapter 8
00:38:16.377                     : en:Chapter 9
00:43:57.260                     : en:Chapter 10
00:49:20.541                     : en:Chapter 11
00:53:42.594                     : en:Chapter 12
00:56:58.582                     : en:Chapter 13
01:01:46.995                     : en:Chapter 14
01:06:22.687                     : en:Chapter 15
01:11:30.161                     : en:Chapter 16
01:17:13.504                     : en:Chapter 17
01:23:09.568                     : en:Chapter 18
01:31:52.257                     : en:Chapter 19
01:38:42.125                     : en:Chapter 20
24.01.2014 торрент перезалит: заменён дубляж (с BD), добавлены одноголосые дорожки и полные русские субтитры.
Скачать

Скачать торрент!

Как скачивать? · Что такое торрент? · Рейтинг и ограничения

Сайт не распространяет и не хранит электронные версии произведений, а лишь предоставляет доступ к создаваемому пользователями каталогу ссылок на торрент-файлы, которые содержат только списки хеш-сумм

[Профиль] [ЛС]
Показать сообщения:    
Ответить на тему

Текущее время: Сегодня 10:07

Часовой пояс: GMT + 4



Вы не можете начинать темы
Вы не можете отвечать на сообщения
Вы не можете редактировать свои сообщения
Вы не можете удалять свои сообщения
Вы не можете голосовать в опросах
Вы не можете прикреплять файлы к сообщениям
Вы не можете скачивать файлы