Вне времени / Out of Time (Карл Франклин / Carl Franklin) [2003, США, триллер, драма, криминал, BDRip 720p] [GER] Dub + DVO + AVO (Гаврилов) + Original eng + Sub rus, eng

Ответить на тему
 
Автор Сообщение

user ®

Стаж: 7 лет 7 месяцев

Сообщений: 20008

Пост Пост: #1 от 24-Янв-2014 21:20

[Цитировать]

Вне времени / Out of Time
Страна: США
Жанр: триллер, драма, криминал
Год выпуска: 2003
Продолжительность: 01:45:25
Перевод#1: Профессиональный (дублированный)
Перевод#2: Профессиональный (двухголосый закадровый) | FDV
Перевод#3: Авторский (одноголосый закадровый), А. Гаврилов
Cубтитры: русские, английские
Оригинальная аудиодорожка: английский
Режиссер: Карл Франклин / Carl Franklin
В ролях: Дензел Вашингтон, Ева Мендес, Санаа Лэтэн, Дин Кэйн, Джон Биллингсли, Роберт Бэйкер, Алекс Картер, Энтони Короне, Терри Лафлин, Нора Данн
Описание: Начальник отделения полиции небольшого курортного города, Маттиас Ли Уитлок, расстроенный тем, что от него уходит жена, затевает роман с замужней женщиной Энн Мераи Хэррисон. Вскоре он узнает, что его новая подруга больна раком, а ее муж, по-видимому, хочет получить за смерть жены очень крупную страховку
Маттиас решает пойти на должностное преступление, чтобы помочь Энн пройти курс лечения в дорогой клинике за границей, а Энн, в знак благодарности за заботу о ней, делает Маттиаса доверенным лицом на получение выплаты от страховой компании. Внезапно Энн и ее муж погибают, и все улики указывают на героя Дензела Вашингтона. Ему нужно срочно доказать свою невиновность, потому что число подозреваемых сокращается, и времени остается все меньше и меньше…

Исходник: [url=http://***/forum/viewtopic.php?t=4650168]BDRemux[/url]
Тип релиза: BDRip 720p | sample
Контейнер: MKV
Видео кодек: x264
Видео: AVC 1280x534 (2.40:1), 23.976 fps, ~8150 Kbps, 0.48 bit/pixel
Аудио #1: Russian AC3 6ch 48kHz 448Kbps | Dub
Аудио #2: Russian AC3 2ch 48kHz 192Kbps | DVO FDV
Аудио #3: Russian DTS 6ch 48kHz 1510 | AVO Гаврилов
Аудио #4: English DTS 6ch 48kHz 1510 | Original
Формат субтитров: softsub (SRT)
Главы: есть, подписаны

Дополнительно

За основу взято немецкое издание, сравнение с [url=http://***/forum/viewtopic.php?t=2544005]штатовским[/url] MPEG-2 здесь
[url=http://***/forum/viewtopic.php?t=438903]Дубляж[/url] перетянут заново
Двухголоска [url=http://***/forum/viewtopic.php?t=3682777]отсюда[/url], опознана как FDV
За дорогу Гаврилова благодарим edsz и dunhill200 с Пиратки
Всем спасибо

MediaInfo | x264

x264

--[Information] [17.01.2014 10:30:51] raw [info]: 1280x534p 1:1 @ 24000/1001 fps (cfr)
--[Information] [17.01.2014 10:30:51] x264 [info]: using SAR=1/1
--[Information] [17.01.2014 10:30:51] x264 [info]: using cpu capabilities: MMX2 SSE2Fast LZCNT
--[Information] [17.01.2014 10:30:51] x264 [info]: profile High, level 4.1
--[Information] [17.01.2014 10:30:51] x264 [info]: cabac=1 ref=10 deblock=1:-3:-3 analyse=0x3:0x113 me=umh subme=11 psy=1 fade_compensate=0.00 psy_rd=1.00:0.05 mixed_ref=1 me_range=48 chroma_me=1 trellis=2 8x8dct=1 cqm=0 deadzone=21,11 fast_pskip=1 chroma_qp_offset=-3 threads=6 lookahead_threads=1 sliced_threads=0 nr=0 decimate=1 interlaced=0 bluray_compat=0 constrained_intra=0 fgo=0 bframes=12 b_pyramid=2 b_adapt=2 b_bias=0 direct=1 weightb=1 open_gop=0 weightp=2 keyint=240 keyint_min=23 scenecut=40 intra_refresh=0 rc_lookahead=0 rc=crf mbtree=0 crf=18.0000 qcomp=0.65 qpmin=0 qpmax=69 qpstep=4 vbv_maxrate=50000 vbv_bufsize=62500 crf_max=0.0 nal_hrd=none filler=0 ip_ratio=1.40 pb_ratio=1.20 aq=3:1.00
--[Information] [17.01.2014 10:30:51] frames fps kb/s elapsed remain size est.size
--[Information] [18.01.2014 2:37:14] x264 [info]: frame I:1130 Avg QP:15.40 size:118329
--[Information] [18.01.2014 2:37:15] x264 [info]: frame P:30084 Avg QP:16.82 size: 59422
--[Information] [18.01.2014 2:37:15] x264 [info]: frame B:120423 Avg QP:18.23 size: 37515
--[Information] [18.01.2014 2:37:15] x264 [info]: consecutive B-frames: 1.3% 1.5% 6.9% 12.8% 16.4% 50.0% 5.7% 1.6% 1.3% 1.1% 0.6% 0.4% 0.3%
--[Information] [18.01.2014 2:37:15] x264 [info]: mb I I16..4: 8.8% 78.4% 12.8%
--[Information] [18.01.2014 2:37:15] x264 [info]: mb P I16..4: 0.7% 34.6% 2.2% P16..4: 20.9% 28.0% 11.4% 0.0% 0.0% skip: 2.3%
--[Information] [18.01.2014 2:37:15] x264 [info]: mb B I16..4: 0.2% 11.4% 0.4% B16..8: 33.8% 25.7% 6.1% direct:10.3% skip:12.2% L0:43.2% L1:39.8% BI:17.0%
--[Information] [18.01.2014 2:37:15] x264 [info]: 8x8 transform intra:93.4% inter:56.9%
--[Information] [18.01.2014 2:37:15] x264 [info]: coded y,uvDC,uvAC intra: 96.4% 85.4% 60.3% inter: 54.1% 32.4% 3.7%
--[Information] [18.01.2014 2:37:15] x264 [info]: i16 v,h,dc,p: 42% 8% 11% 40%
--[Information] [18.01.2014 2:37:15] x264 [info]: i8 v,h,dc,ddl,ddr,vr,hd,vl,hu: 11% 7% 18% 10% 11% 11% 9% 11% 11%
--[Information] [18.01.2014 2:37:15] x264 [info]: i4 v,h,dc,ddl,ddr,vr,hd,vl,hu: 30% 7% 11% 7% 10% 10% 9% 8% 8%
--[Information] [18.01.2014 2:37:15] x264 [info]: i8c dc,h,v,p: 39% 27% 20% 14%
--[Information] [18.01.2014 2:37:15] x264 [info]: Weighted P-Frames: Y:5.3% UV:3.0%
--[Information] [18.01.2014 2:37:15] x264 [info]: ref P L0: 41.7% 10.7% 19.4% 7.3% 6.3% 4.2% 4.0% 2.2% 2.2% 1.8% 0.2% 0.0%
--[Information] [18.01.2014 2:37:15] x264 [info]: ref B L0: 72.1% 12.3% 5.8% 3.2% 2.3% 1.9% 1.5% 0.7% 0.3%
--[Information] [18.01.2014 2:37:15] x264 [info]: ref B L1: 92.4% 7.6%
--[Information] [18.01.2014 2:37:15] x264 [info]: kb/s:8144.77
General
Complete name : E:\...\Out.of.Time.2003.GER.720p.BluRay.x264.3xRus.Eng-E76.mkv
Format : Matroska
Format version : Version 2
File size : 8.69 GiB
Duration : 1h 45mn
Overall bit rate : 11.8 Mbps
Movie name : Out.of.Time.2003.GER.720p.BluRay.x264.3xRus.Eng-E76
Encoded date : UTC 2014-01-21 08:33:22
Writing application : mkvmerge v6.5.0 ('Isn't she lovely') built on Oct 20 2013 12:50:05
Writing library : libebml v1.3.0 + libmatroska v1.4.1
Video
ID : 1
Format : AVC
Format/Info : Advanced Video Codec
Format profile : High@L4.1
Format settings, CABAC : Yes
Format settings, ReFrames : 10 frames
Codec ID : V_MPEG4/ISO/AVC
Duration : 1h 45mn
Bit rate : 7 911 Kbps
Width : 1 280 pixels
Height : 534 pixels
Display aspect ratio : 2.40:1
Frame rate mode : Constant
Frame rate : 23.976 fps
Color space : YUV
Chroma subsampling : 4:2:0
Bit depth : 8 bits
Scan type : Progressive
Bits/(Pixel*Frame) : 0.483
Stream size : 5.83 GiB (67%)
Title : Out of Time (2003)
Writing library : x264 core 140 r2377kMod 1ca7bb9
Encoding settings : cabac=1 / ref=10 / deblock=1:-3:-3 / analyse=0x3:0x113 / me=umh / subme=11 / psy=1 / fade_compensate=0.00 / psy_rd=1.00:0.05 / mixed_ref=1 / me_range=48 / chroma_me=1 / trellis=2 / 8x8dct=1 / cqm=0 / deadzone=21,11 / fast_pskip=1 / chroma_qp_offset=-3 / threads=6 / lookahead_threads=1 / sliced_threads=0 / nr=0 / decimate=1 / interlaced=0 / bluray_compat=0 / constrained_intra=0 / fgo=0 / bframes=12 / b_pyramid=2 / b_adapt=2 / b_bias=0 / direct=1 / weightb=1 / open_gop=0 / weightp=2 / keyint=240 / keyint_min=23 / scenecut=40 / intra_refresh=0 / rc_lookahead=0 / rc=crf / mbtree=0 / crf=18.0000 / qcomp=0.65 / qpmin=0 / qpmax=69 / qpstep=4 / vbv_maxrate=50000 / vbv_bufsize=62500 / crf_max=0.0 / nal_hrd=none / filler=0 / ip_ratio=1.40 / pb_ratio=1.20 / aq=3:1.00
Language : English
Default : Yes
Forced : No
Matrix coefficients : BT.709
Audio #1
ID : 2
Format : AC-3
Format/Info : Audio Coding 3
Mode extension : CM (complete main)
Format settings, Endianness : Big
Codec ID : A_AC3
Duration : 1h 45mn
Bit rate mode : Constant
Bit rate : 448 Kbps
Channel(s) : 6 channels
Channel positions : Front: L C R, Side: L R, LFE
Sampling rate : 48.0 KHz
Bit depth : 16 bits
Compression mode : Lossy
Stream size : 338 MiB (4%)
Title : Dub
Language : Russian
Default : Yes
Forced : No
Audio #2
ID : 3
Format : AC-3
Format/Info : Audio Coding 3
Mode extension : CM (complete main)
Format settings, Endianness : Big
Codec ID : A_AC3
Duration : 1h 45mn
Bit rate mode : Constant
Bit rate : 192 Kbps
Channel(s) : 2 channels
Channel positions : Front: L R
Sampling rate : 48.0 KHz
Bit depth : 16 bits
Compression mode : Lossy
Stream size : 145 MiB (2%)
Title : DVO FDV
Language : Russian
Default : No
Forced : No
Audio #3
ID : 4
Format : DTS
Format/Info : Digital Theater Systems
Codec ID : A_DTS
Duration : 1h 45mn
Bit rate mode : Constant
Bit rate : 1 510 Kbps
Channel(s) : 6 channels
Channel positions : Front: L C R, Side: L R, LFE
Sampling rate : 48.0 KHz
Bit depth : 16 bits
Compression mode : Lossy
Stream size : 1.11 GiB (13%)
Title : AVO Gavrilov
Language : Russian
Default : No
Forced : No
Audio #4
ID : 5
Format : DTS
Format/Info : Digital Theater Systems
Codec ID : A_DTS
Duration : 1h 45mn
Bit rate mode : Constant
Bit rate : 1 510 Kbps
Channel(s) : 6 channels
Channel positions : Front: L C R, Side: L R, LFE
Sampling rate : 48.0 KHz
Bit depth : 16 bits
Compression mode : Lossy
Stream size : 1.11 GiB (13%)
Title : Original
Language : English
Default : No
Forced : No
Text #1
ID : 6
Format : UTF-8
Codec ID : S_TEXT/UTF8
Codec ID/Info : UTF-8 Plain Text
Language : Russian
Default : No
Forced : No
Text #2
ID : 7
Format : UTF-8
Codec ID : S_TEXT/UTF8
Codec ID/Info : UTF-8 Plain Text
Title : SDH
Language : English
Default : No
Forced : No
Menu
00:00:00.000 : en:Main Title
00:02:03.873 : en:An Ugly Burglar
00:07:49.051 : en:"I Don't Want To"
00:09:09.549 : en:Not Worth the Fight
00:11:51.961 : en:Half a Foursome
00:14:16.689 : en:A Terminal Setback
00:19:01.557 : en:Extra Insurance
00:22:24.301 : en:The Living Gift
00:24:55.577 : en:Only Two Days to Switch
00:26:02.102 : en:Hypothetical Threats
00:29:42.614 : en:Ann's Farewell Present...
00:31:33.182 : en:...And Matt's
00:33:22.750 : en:Past Eleven
00:35:53.109 : en:Definitely Arson
00:39:50.513 : en:What the Dentist Knows
00:43:46.707 : en:Clean Bill of Health
00:47:16.416 : en:Somewhat Positive ID
00:49:10.489 : en:Messing Up the Evidence
00:56:41.564 : en:Whose Phone Is It?
00:59:48.459 : en:Motive and Opportunity
01:01:37.235 : en:On Cabot's Trail
01:06:40.413 : en:"I Meant Five Seconds"
01:08:04.914 : en:Quick Checkout
01:13:21.188 : en:Emergency Exit
01:16:59.364 : en:Having a Talk
01:20:48.301 : en:A Call From Beyond
01:26:12.959 : en:Showdown With a Corpse
01:31:11.757 : en:"You Do Have a Choice"
01:34:47.682 : en:The Best Intentions
01:38:14.054 : en:"Because I'm Stupid"
01:39:22.456 : en:A Conflict of Interest
01:42:38.694 : en:End Credits

Скриншоты и сравнения

source vs E76 (GER) vs [url=http://***/forum/viewtopic.php?t=2018871]CtrlHD (US)[/url]







Скачать

Скачать торрент!

Как скачивать? · Что такое торрент? · Рейтинг и ограничения

Сайт не распространяет и не хранит электронные версии произведений, а лишь предоставляет доступ к создаваемому пользователями каталогу ссылок на торрент-файлы, которые содержат только списки хеш-сумм

[Профиль] [ЛС]
Показать сообщения:    
Ответить на тему

Текущее время: Сегодня 12:12

Часовой пояс: GMT + 4



Вы не можете начинать темы
Вы не можете отвечать на сообщения
Вы не можете редактировать свои сообщения
Вы не можете удалять свои сообщения
Вы не можете голосовать в опросах
Вы не можете прикреплять файлы к сообщениям
Вы не можете скачивать файлы