Рождественская история 2 / A Christmas Story 2 (Брайан Левант / Brian Levant) [2012, США, Канада, комедия, HDTV 1080i] DVO (SDI Media)

Ответить на тему
 
Автор Сообщение

user ®

Стаж: 7 лет 7 месяцев

Сообщений: 20008

Пост Пост: #1 от 24-Янв-2014 21:20

[Цитировать]

Рождественская история 2 / A Christmas Story 2
Страна: США, Канада
Жанр: комедия
Год выпуска: 2012
Продолжительность: 01:21:51
Перевод: Профессиональный (двухголосый закадровый) SDI Media
Cубтитры: нет
Режиссер: Брайан Левант / Brian Levant
В ролях: Дэниел Стерн, Браден Лемастерс, Стэйси Трэвис, Валин Шиней, Джерард Планкет, Дэвид Майкл Пол, Дэвид В. Томпсон, Тиера Сковбай, Шон МакДональд, Гари Чок и другие.
Описание: Главным героем картины становится мальчик по имени Ралфи. В детстве он пожелал получить на рождество красный пистолет Райдера, и мечта осуществилась. Теперь мальчик подрос, и уже в свои 16 лет Ралфи загадывает желание посущественнее, чем игрушечный пистолетик. На очередное рождество парень загадал, чтобы проснуться утром с ключом от Skyline Hupmobile 1938 года выпуска, который, по его мнению, подарит ему новый мир свободы. Но сможет ли он осуществить свою мечту на этот раз?
Сэмпл: http://multi-up.com/943640
Тип релиза: HDTV 1080i
Контейнер: TS
Видео: AVC, 1920 x 1080, 16:9, 6 985 Kbps, 25.000 fps
Аудио: MP2, 192 Kbps, 48.0 KHz, 2 ch - русский двухголосый (SDI Media)

MediaInfo

Рождественская история 2.ts
Format : MPEG-TS
File size : 4.32 GiB
Duration : 1h 21mn
Overall bit rate mode : Variable
Overall bit rate : 7 552 Kbps
Video
ID : 4113 (0x1011)
Menu ID : 1 (0x1)
Format : AVC
Format/Info : Advanced Video Codec
Format profile : High@L4.0
Format settings, CABAC : Yes
Format settings, ReFrames : 4 frames
Codec ID : 27
Duration : 1h 21mn
Bit rate mode : Variable
Bit rate : 6 985 Kbps
Maximum bit rate : 40.0 Mbps
Width : 1 920 pixels
Height : 1 080 pixels
Display aspect ratio : 16:9
Frame rate : 25.000 fps
Standard : Component
Color space : YUV
Chroma subsampling : 4:2:0
Bit depth : 8 bits
Scan type : Interlaced
Scan order : Top Field First
Bits/(Pixel*Frame) : 0.135
Stream size : 3.99 GiB (92%)
Color primaries : BT.709
Transfer characteristics : BT.709
Matrix coefficients : BT.709
Audio
ID : 4352 (0x1100)
Menu ID : 1 (0x1)
Format : MPEG Audio
Format version : Version 1
Format profile : Layer 2
Codec ID : 3
Duration : 1h 21mn
Bit rate mode : Constant
Bit rate : 192 Kbps
Channel count : 2 channels
Sampling rate : 48.0 KHz
Compression mode : Lossy
Stream size : 112 MiB (3%)
Language : Russian

Скриншоты


Скриншот с названием фильма

Скачать

Скачать торрент!

Как скачивать? · Что такое торрент? · Рейтинг и ограничения

Сайт не распространяет и не хранит электронные версии произведений, а лишь предоставляет доступ к создаваемому пользователями каталогу ссылок на торрент-файлы, которые содержат только списки хеш-сумм

[Профиль] [ЛС]
Показать сообщения:    
Ответить на тему

Текущее время: Сегодня 21:36

Часовой пояс: GMT + 4



Вы не можете начинать темы
Вы не можете отвечать на сообщения
Вы не можете редактировать свои сообщения
Вы не можете удалять свои сообщения
Вы не можете голосовать в опросах
Вы не можете прикреплять файлы к сообщениям
Вы не можете скачивать файлы