Уничтожение / Raze (Джош С. Уоллер / Josh C. Waller) [2013, США, боевик, ужасы, WEB-DL 720p] DVO + Original (Eng)

Ответить на тему
 
Автор Сообщение

user ®

Стаж: 7 лет 7 месяцев

Сообщений: 20008

Пост Пост: #1 от 24-Янв-2014 03:30

[Цитировать]

Уничтожение : Raze«Fight or die!» Страна: США
Год выпуска: 2013
Жанр: боевик, ужасы
Продолжительность: 01:32:07
Перевод: Любительский (Двухголосый закадровый) [den904, deadsno]
русские субтитры: нет-Режиссёр: Джош С. Уоллер : Josh C. Waller
В главных ролях: Зои Белл, Рэйчел Николс, Трейси Томс, Шерилин Фенн, Даг Джонс, Брюс Томас, Бэйли Энн Бордерс, Ребекка Маршалл, Эдриэнн Уилкинсон, Али Андерсон-Описание: История о 50-ти похищенных девушках, которые, ради удовольствия садистов из элитных кругов, вынуждены бороться друг с другом голыми руками по принципу «бейся или умри».- -Качество: WEB-DL 720p
Формат: MKV
Видео кодек: AVC
Аудио кодек: АС3
Видео: 1280x528, 23.976 fps, ~4 101 kbps avg, 0.253 bit/pixel
Аудио #1: [RUS] 48 kHz, AC3 Dolby Digital, 2/0 (L,R) ch, ~192 kbps kbps
Аудио #2: [ENG] 48 kHz, AC3 Dolby Digital, 2/0 (L,R) ch, ~192 kbps kbps

скриншоты


MediaInfo

Общее
Уникальный идентификатор : 247245319998238605044718648179804495045 (0xBA01B76F20A45A498605BC7A070A5CC5)
Полное имя : D:\Фильмы\Уничтожение\Raze.2013.WEB-DL 720p.mkv
Формат : Matroska
Версия формата : Version 4 / Version 2
Размер файла : 2,94 Гбайт
Продолжительность : 1 ч. 32 м.
Общий поток : 4576 Кбит/сек
Дата кодирования : UTC 2014-01-22 16:44:15
Программа кодирования : mkvmerge v6.5.0 ('Isn't she lovely') built on Oct 20 2013 12:50:05
Библиотека кодирования : libebml v1.3.0 + libmatroska v1.4.1
Видео
Идентификатор : 1
Формат : AVC
Формат/Информация : Advanced Video Codec
Профиль формата : Main@L3.1
Параметр CABAC формата : Нет
Параметр ReFrames формата : 2 кадра
Идентификатор кодека : V_MPEG4/ISO/AVC
Продолжительность : 1 ч. 32 м.
Битрейт : 4101 Кбит/сек
Ширина : 1280 пикселей
Высота : 528 пикселей
Соотношение сторон : 2,40:1
Частота кадров : 23,976 кадра/сек
Цветовое пространство : YUV
Субдискретизация насыщенности : 4:2:0
Битовая глубина : 8 бит
Тип развёртки : Прогрессивная
Бит/(Пиксели*Кадры) : 0.253
Размер потока : 2,64 Гбайт (90%)
Язык : English
Default : Да
Forced : Нет
Основные цвета : BT.709-5, BT.1361, IEC 61966-2-4, SMPTE RP177
Характеристики трансфера : BT.709-5, BT.1361
Коэффициенты матрицы : BT.709-5, BT.1361, IEC 61966-2-4 709, SMPTE RP177
Аудио #1
Идентификатор : 2
Формат : AC-3
Формат/Информация : Audio Coding 3
Расширение режима : CM (complete main)
Идентификатор кодека : A_AC3
Продолжительность : 1 ч. 32 м.
Вид битрейта : Постоянный
Битрейт : 192 Кбит/сек
Каналы : 2 канала
Расположение каналов : Front: L R
Частота : 48,0 КГц
Битовая глубина : 16 бит
Метод сжатия : С потерями
Размер потока : 127 Мбайт (4%)
Заголовок : DVO [den904, deadsno]
Язык : Russian
Default : Да
Forced : Нет
Аудио #2
Идентификатор : 3
Формат : AC-3
Формат/Информация : Audio Coding 3
Расширение режима : CM (complete main)
Идентификатор кодека : A_AC3
Продолжительность : 1 ч. 32 м.
Вид битрейта : Постоянный
Битрейт : 192 Кбит/сек
Каналы : 2 канала
Расположение каналов : Front: L R
Частота : 48,0 КГц
Битовая глубина : 16 бит
Метод сжатия : С потерями
Размер потока : 127 Мбайт (4%)
Заголовок : ENG
Язык : English
Default : Нет
Forced : Нет
Скачать

Скачать торрент!

Как скачивать? · Что такое торрент? · Рейтинг и ограничения

Сайт не распространяет и не хранит электронные версии произведений, а лишь предоставляет доступ к создаваемому пользователями каталогу ссылок на торрент-файлы, которые содержат только списки хеш-сумм

[Профиль] [ЛС]
Показать сообщения:    
Ответить на тему

Текущее время: Сегодня 12:36

Часовой пояс: GMT + 4



Вы не можете начинать темы
Вы не можете отвечать на сообщения
Вы не можете редактировать свои сообщения
Вы не можете удалять свои сообщения
Вы не можете голосовать в опросах
Вы не можете прикреплять файлы к сообщениям
Вы не можете скачивать файлы