Рекрут / The Recruit (Роджер Дональдсон / Roger Donaldson) [2003, США, боевик, триллер, драма, криминал, BDRip 720p] [GER] Dub + 2x MVO + AVO + Original eng + Sub rus, eng

Ответить на тему
 
Автор Сообщение

user ®

Стаж: 7 лет 7 месяцев

Сообщений: 20008

Пост Пост: #1 от 24-Янв-2014 00:20

[Цитировать]

Рекрут / The Recruit
Страна: США
Жанр: боевик, триллер, драма, криминал
Год выпуска: 2003
Продолжительность: 01:54:59
Перевод#1: Профессиональный (дублированный) | R5
Перевод#2: Профессиональный (многоголосый закадровый) | Видеосервис
Перевод#3: Профессиональный (многоголосый закадровый) | FDV
Перевод#4: Авторский (одноголосый закадровый), Ю. Живов
Cубтитры: русские (Enclave76 по дубляжу + на надписи), английские
Оригинальная аудиодорожка: английский
Режиссер: Роджер Дональдсон / Roger Donaldson
В ролях: Аль Пачино, Колин Фаррелл, Бриджет Мойнэхэн, Гэбриел Махт, Кеннет Митчел, Майк Рилба, Рон Лиа, Карл Прюнер, Джини Колледжа, Дженни Ливайн
Описание: Джеймс Клэйтон вовсе не мечтал о карьере шпиона. Но соблазн узнать правду о таинственном исчезновении в 1990 году своего отца - секретного агента, заставляет его завербоваться в ЦРУ. Новоиспеченный рекрут неплохо проходит один тест за другим, однако задания становятся все изощреннее
Обыденные события оказываются скрытой проверкой, а наставник героя, матерый разведчик Уолтер Берк все настойчивее намекает: происходящее на самом деле может быть не тем, чем кажется. Обстановка накаляется с каждым днем, и однажды Клэйтон узнает причину этого: в Лэнгли завелся «крот», и именно ему предстоит вычислить предателя
Что это, очередной тест? Или шутки кончились, и на кону - национальная безопасность?...

Исходник: [url=http://***/forum/viewtopic.php?t=4647833]BDRemux[/url] by markinscor & Enclave76
Тип релиза: BDRip 720p (от E76 ) | sample
Контейнер: MKV
Видео кодек: x264
Видео: AVC 1280x546 (2.35:1), 23.976 fps, ~6700 Kbps, 0.39 bit/pixel
Аудио #1: Russian AC3 2ch 48kHz 192Kbps | Dub R5
Аудио #2: Russian AC3 6ch 48kHz 640Kbps | MVO Видеосервис
Аудио #3: Russian AC3 6ch 48kHz 640Kbps | MVO FDV
Аудио #4: Russian AC3 6ch 48kHz 640Kbps | AVO Живов
Аудио #5: English AC3 6ch 48kHz 640Kbps | Original
Формат субтитров: softsub (SRT)
Главы: есть, подписаны

Дополнительно

Сделано с германского трансфера, на голову лучше штатовского, сравнения в раздаче ремукса
За всю работу над дорогами респектъ markin scor
  • За выделение Видеосервиса спасибо Slimka
  • За тв-запись дубляжа благодарность уходит Slim9174. Дорога в псевдо-стерео, по качеству лучше, чем в ремуксе
За голос Живова спасибо емнип sergey_n
Русские субтитры набиты заново. За основу взят перевод из дубляжа, внесены незначительные смысловые и стилистические правки
Надписи в дубляже озвучены, поэтому по умолчанию отключены

MediaInfo | x264

x264

--[Information] [29.11.2013 7:27:10] raw [info]: 1280x546p 1:1 @ 24000/1001 fps (cfr)
--[Information] [29.11.2013 7:27:10] x264 [info]: using SAR=1/1
--[Information] [29.11.2013 7:27:10] x264 [info]: using cpu capabilities: MMX2 SSE2Fast LZCNT
--[Information] [29.11.2013 7:27:10] x264 [info]: profile High, level 4.1
--[Information] [29.11.2013 7:27:10] x264 [info]: cabac=1 ref=9 deblock=1:-3:-3 analyse=0x3:0x113 me=umh subme=11 psy=1 fade_compensate=0.00 psy_rd=1.00:0.00 mixed_ref=1 me_range=48 chroma_me=1 trellis=2 8x8dct=1 cqm=0 deadzone=21,11 fast_pskip=1 chroma_qp_offset=-2 threads=6 lookahead_threads=1 sliced_threads=0 nr=0 decimate=1 interlaced=0 bluray_compat=0 constrained_intra=0 bframes=16 b_pyramid=2 b_adapt=2 b_bias=0 direct=1 weightb=1 open_gop=0 weightp=2 keyint=240 keyint_min=23 scenecut=40 intra_refresh=0 rc_lookahead=0 rc=crf mbtree=0 crf=17.2500 qcomp=0.65 qpmin=0 qpmax=69 qpstep=4 vbv_maxrate=50000 vbv_bufsize=62500 crf_max=0.0 nal_hrd=none ip_ratio=1.40 pb_ratio=1.15 aq=3:1.00
--[Information] [29.11.2013 7:27:10] frames fps kb/s elapsed remain size est.size
--[Information] [29.11.2013 22:22:51] x264 [info]: frame I:1081 Avg QP:12.23 size: 99166
--[Information] [29.11.2013 22:22:51] x264 [info]: frame P:32097 Avg QP:14.12 size: 49516
--[Information] [29.11.2013 22:22:51] x264 [info]: frame B:132236 Avg QP:15.30 size: 30978
--[Information] [29.11.2013 22:22:51] x264 [info]: consecutive B-frames: 1.3% 1.8% 4.4% 20.7% 13.0% 33.2% 7.7% 9.7% 3.2% 1.8% 0.5% 0.9% 0.4% 0.6% 0.5% 0.2% 0.2%
--[Information] [29.11.2013 22:22:51] x264 [info]: mb I I16..4: 1.9% 87.3% 10.7%
--[Information] [29.11.2013 22:22:51] x264 [info]: mb P I16..4: 0.8% 28.4% 1.9% P16..4: 21.8% 32.6% 13.8% 0.0% 0.0% skip: 0.8%
--[Information] [29.11.2013 22:22:51] x264 [info]: mb B I16..4: 0.2% 7.1% 0.3% B16..8: 33.7% 30.8% 8.1% direct:10.0% skip: 9.8% L0:44.8% L1:41.9% BI:13.4%
--[Information] [29.11.2013 22:22:51] x264 [info]: 8x8 transform intra:92.2% inter:55.5%
--[Information] [29.11.2013 22:22:51] x264 [info]: coded y,uvDC,uvAC intra: 94.1% 91.7% 81.6% inter: 54.6% 38.5% 14.7%
--[Information] [29.11.2013 22:22:51] x264 [info]: i16 v,h,dc,p: 47% 14% 7% 31%
--[Information] [29.11.2013 22:22:51] x264 [info]: i8 v,h,dc,ddl,ddr,vr,hd,vl,hu: 10% 8% 14% 10% 12% 11% 11% 11% 13%
--[Information] [29.11.2013 22:22:51] x264 [info]: i4 v,h,dc,ddl,ddr,vr,hd,vl,hu: 33% 8% 9% 6% 10% 9% 8% 8% 9%
--[Information] [29.11.2013 22:22:51] x264 [info]: i8c dc,h,v,p: 51% 20% 16% 13%
--[Information] [29.11.2013 22:22:51] x264 [info]: Weighted P-Frames: Y:5.3% UV:3.1%
--[Information] [29.11.2013 22:22:51] x264 [info]: ref P L0: 44.0% 7.0% 17.6% 9.1% 6.4% 5.7% 4.3% 3.1% 2.5% 0.2% 0.0%
--[Information] [29.11.2013 22:22:51] x264 [info]: ref B L0: 69.7% 12.9% 7.1% 3.7% 2.9% 2.3% 1.2% 0.3%
--[Information] [29.11.2013 22:22:51] x264 [info]: ref B L1: 90.6% 9.4%
--[Information] [29.11.2013 22:22:51] x264 [info]: kb/s:6717.20
General
Complete name : E:\...\The Recruit 2003\Recruit.2003.720p.BDRip.4xRus.Eng.HDCLUB.mkv
Format : Matroska
Format version : Version 2
File size : 7.61 GiB
Duration : 1h 54mn
Overall bit rate : 9 472 Kbps
Movie name : The.Recruit.2003.GER.720p.BluRay.x264.DD5.1.Eng-E76
Encoded date : UTC 2014-01-21 19:47:27
Writing application : mkvmerge v5.8.0 ('No Sleep / Pillow') built on Sep 2 2012 15:37:04
Writing library : libebml v1.2.3 + libmatroska v1.3.0
Video
ID : 1
Format : AVC
Format/Info : Advanced Video Codec
Format profile : High@L4.1
Format settings, CABAC : Yes
Format settings, ReFrames : 9 frames
Codec ID : V_MPEG4/ISO/AVC
Duration : 1h 54mn
Bit rate : 6 532 Kbps
Width : 1 280 pixels
Height : 546 pixels
Display aspect ratio : 2.35:1
Frame rate mode : Constant
Frame rate : 23.976 fps
Color space : YUV
Chroma subsampling : 4:2:0
Bit depth : 8 bits
Scan type : Progressive
Bits/(Pixel*Frame) : 0.390
Stream size : 5.25 GiB (69%)
Title : The Recruit (2003)
Writing library : x264 core 138 r2358kMod 9e941d1
Encoding settings : cabac=1 / ref=9 / deblock=1:-3:-3 / analyse=0x3:0x113 / me=umh / subme=11 / psy=1 / fade_compensate=0.00 / psy_rd=1.00:0.00 / mixed_ref=1 / me_range=48 / chroma_me=1 / trellis=2 / 8x8dct=1 / cqm=0 / deadzone=21,11 / fast_pskip=1 / chroma_qp_offset=-2 / threads=6 / lookahead_threads=1 / sliced_threads=0 / nr=0 / decimate=1 / interlaced=0 / bluray_compat=0 / constrained_intra=0 / bframes=16 / b_pyramid=2 / b_adapt=2 / b_bias=0 / direct=1 / weightb=1 / open_gop=0 / weightp=2 / keyint=240 / keyint_min=23 / scenecut=40 / intra_refresh=0 / rc_lookahead=0 / rc=crf / mbtree=0 / crf=17.2500 / qcomp=0.65 / qpmin=0 / qpmax=69 / qpstep=4 / vbv_maxrate=50000 / vbv_bufsize=62500 / crf_max=0.0 / nal_hrd=none / ip_ratio=1.40 / pb_ratio=1.15 / aq=3:1.00
Language : English
Default : Yes
Forced : No
Matrix coefficients : BT.709
Audio #1
ID : 2
Format : AC-3
Format/Info : Audio Coding 3
Mode extension : CM (complete main)
Format settings, Endianness : Big
Codec ID : A_AC3
Duration : 1h 54mn
Bit rate mode : Constant
Bit rate : 192 Kbps
Channel(s) : 2 channels
Channel positions : Front: L R
Sampling rate : 48.0 KHz
Bit depth : 16 bits
Compression mode : Lossy
Stream size : 158 MiB (2%)
Title : DUB R5
Language : Russian
Default : Yes
Forced : No
Audio #2
ID : 3
Format : AC-3
Format/Info : Audio Coding 3
Mode extension : CM (complete main)
Format settings, Endianness : Big
Codec ID : A_AC3
Duration : 1h 54mn
Bit rate mode : Constant
Bit rate : 640 Kbps
Channel(s) : 6 channels
Channel positions : Front: L C R, Side: L R, LFE
Sampling rate : 48.0 KHz
Bit depth : 16 bits
Compression mode : Lossy
Stream size : 526 MiB (7%)
Title : MVO Видеосервис
Language : Russian
Default : No
Forced : No
Audio #3
ID : 4
Format : AC-3
Format/Info : Audio Coding 3
Mode extension : CM (complete main)
Format settings, Endianness : Big
Codec ID : A_AC3
Duration : 1h 54mn
Bit rate mode : Constant
Bit rate : 640 Kbps
Channel(s) : 6 channels
Channel positions : Front: L C R, Side: L R, LFE
Sampling rate : 48.0 KHz
Bit depth : 16 bits
Compression mode : Lossy
Stream size : 526 MiB (7%)
Title : MVO FDV
Language : Russian
Default : No
Forced : No
Audio #4
ID : 5
Format : AC-3
Format/Info : Audio Coding 3
Mode extension : CM (complete main)
Format settings, Endianness : Big
Codec ID : A_AC3
Duration : 1h 54mn
Bit rate mode : Constant
Bit rate : 640 Kbps
Channel(s) : 6 channels
Channel positions : Front: L C R, Side: L R, LFE
Sampling rate : 48.0 KHz
Bit depth : 16 bits
Compression mode : Lossy
Stream size : 526 MiB (7%)
Title : AVO Живов
Language : Russian
Default : No
Forced : No
Audio #5
ID : 6
Format : AC-3
Format/Info : Audio Coding 3
Mode extension : CM (complete main)
Format settings, Endianness : Big
Codec ID : A_AC3
Duration : 1h 54mn
Bit rate mode : Constant
Bit rate : 640 Kbps
Channel(s) : 6 channels
Channel positions : Front: L C R, Side: L R, LFE
Sampling rate : 48.0 KHz
Bit depth : 16 bits
Compression mode : Lossy
Stream size : 526 MiB (7%)
Title : Original
Language : English
Default : No
Forced : No
Text #1
ID : 7
Format : UTF-8
Codec ID : S_TEXT/UTF8
Codec ID/Info : UTF-8 Plain Text
Title : forced
Language : Russian
Default : No
Forced : No
Text #2
ID : 8
Format : UTF-8
Codec ID : S_TEXT/UTF8
Codec ID/Info : UTF-8 Plain Text
Title : Enclave76
Language : Russian
Default : No
Forced : No
Text #3
ID : 9
Format : UTF-8
Codec ID : S_TEXT/UTF8
Codec ID/Info : UTF-8 Plain Text
Language : English
Default : No
Forced : No
Menu
00:00:00.000 : en:Job Fair
00:02:41.327 : en:Cia Material
00:09:04.877 : en:The Interview
00:15:03.027 : en:The Farm
00:21:31.873 : en:Bug House
00:27:59.969 : en:Field Trip
00:36:17.508 : en:Choke Point
00:40:36.725 : en:The Noc
00:47:55.122 : en:Welcome to the Cia
00:56:18.875 : en:Contact
01:00:35.965 : en:Mail Delivery
01:09:15.401 : en:Breakfast
01:20:40.544 : en:Tracking Layla
01:27:52.517 : en:Coffee and Data
01:36:19.398 : en:Spartacus
01:45:11.388 : en:Spotlight
01:50:27.912 : en:End Credits
01:54:59.142 : en:The End

Скриншоты

source (GER) vs E76 vs [url=http://***/forum/viewtopic.php?t=634858]ESiR (US/UK)[/url]







Скачать

Скачать торрент!

Как скачивать? · Что такое торрент? · Рейтинг и ограничения

Сайт не распространяет и не хранит электронные версии произведений, а лишь предоставляет доступ к создаваемому пользователями каталогу ссылок на торрент-файлы, которые содержат только списки хеш-сумм

[Профиль] [ЛС]
Показать сообщения:    
Ответить на тему

Текущее время: Сегодня 07:52

Часовой пояс: GMT + 4



Вы не можете начинать темы
Вы не можете отвечать на сообщения
Вы не можете редактировать свои сообщения
Вы не можете удалять свои сообщения
Вы не можете голосовать в опросах
Вы не можете прикреплять файлы к сообщениям
Вы не можете скачивать файлы