Рекрут / The Recruit (Роджер Дональдсон / Roger Donaldson) [2003, США, боевик, триллер, драма, криминал, BDRip 1080p] [GER] Dub + 2x MVO + AVO + Original eng + Sub rus, eng

Ответить на тему
 
Автор Сообщение

user ®

Стаж: 7 лет 7 месяцев

Сообщений: 20008

Пост Пост: #1 от 24-Янв-2014 00:20

[Цитировать]

Рекрут / The Recruit
Страна: США
Жанр: боевик, триллер, драма, криминал
Год выпуска: 2003
Продолжительность: 01:54:59
Перевод#1: Профессиональный (дублированный) | R5
Перевод#2: Профессиональный (многоголосый закадровый) | Видеосервис
Перевод#3: Профессиональный (многоголосый закадровый) | FDV
Перевод#4: Авторский (одноголосый закадровый), Ю. Живов
Cубтитры: русские (Enclave76 по дубляжу + на надписи), английские
Оригинальная аудиодорожка: английский
Режиссер: Роджер Дональдсон / Roger Donaldson
В ролях: Аль Пачино, Колин Фаррелл, Бриджет Мойнэхэн, Гэбриел Махт, Кеннет Митчел, Майк Рилба, Рон Лиа, Карл Прюнер, Джини Колледжа, Дженни Ливайн
Описание: Джеймс Клэйтон вовсе не мечтал о карьере шпиона. Но соблазн узнать правду о таинственном исчезновении в 1990 году своего отца - секретного агента, заставляет его завербоваться в ЦРУ. Новоиспеченный рекрут неплохо проходит один тест за другим, однако задания становятся все изощреннее
Обыденные события оказываются скрытой проверкой, а наставник героя, матерый разведчик Уолтер Берк все настойчивее намекает: происходящее на самом деле может быть не тем, чем кажется. Обстановка накаляется с каждым днем, и однажды Клэйтон узнает причину этого: в Лэнгли завелся «крот», и именно ему предстоит вычислить предателя
Что это, очередной тест? Или шутки кончились, и на кону - национальная безопасность?...

Исходник: [url=http://***/forum/viewtopic.php?t=4647833]BDRemux[/url] by markinscor & Enclave76
Тип релиза: BDRip 1080p (от E76 ) | sample
Контейнер: MKV
Видео кодек: x264
Видео: AVC 1920x820 (2.35:1), 23.976 fps, ~12750 Kbps (65%), 0.33 bit/pixel
Аудио #1: Russian AC3 2ch 48kHz 192Kbps | Dub R5
Аудио #2: Russian DTS 6ch 48kHz 1510Kbps | MVO Видеосервис
Аудио #3: Russian DTS 6ch 48kHz 1510Kbps | MVO FDV
Аудио #4: Russian DTS 6ch 48kHz 1510Kbps | AVO Живов
Аудио #5: English DTS 6ch 48kHz 1510Kbps | Original
Формат субтитров: softsub (SRT)
Главы: есть, подписаны

Дополнительно

Сделано с германского трансфера, на голову лучше штатовского, сравнения в раздаче ремукса
За всю работу над дорогами респектъ markin scor
  • За выделение Видеосервиса спасибо Slimka
  • За тв-запись дубляжа благодарность уходит Slim9174. Дорога в псевдо-стерео, по качеству лучше, чем в ремуксе
За голос Живова спасибо емнип sergey_n
Русские субтитры набиты заново. За основу взят перевод из дубляжа, внесены незначительные смысловые и стилистические правки
Надписи в дубляже озвучены, поэтому по умолчанию отключены

MediaInfo | x264

x264

--[Information] [27.11.2013 10:20:37] raw [info]: 1920x820p 1:1 @ 24000/1001 fps (cfr)
--[Information] [27.11.2013 10:20:37] x264 [info]: using SAR=1/1
--[Information] [27.11.2013 10:20:37] x264 [info]: using cpu capabilities: MMX2 SSE2Fast LZCNT
--[Information] [27.11.2013 10:20:37] x264 [info]: profile High, level 4.1
--[Information] [27.11.2013 10:20:37] x264 [info]: cabac=1 ref=4 deblock=1:-3:-3 analyse=0x3:0x113 me=umh subme=11 psy=1 fade_compensate=0.00 psy_rd=1.05:0.00 mixed_ref=1 me_range=32 chroma_me=1 trellis=2 8x8dct=1 cqm=0 deadzone=21,11 fast_pskip=1 chroma_qp_offset=-2 threads=6 lookahead_threads=1 sliced_threads=0 nr=0 decimate=1 interlaced=0 bluray_compat=0 constrained_intra=0 bframes=13 b_pyramid=2 b_adapt=2 b_bias=0 direct=1 weightb=1 open_gop=0 weightp=2 keyint=240 keyint_min=23 scenecut=40 intra_refresh=0 rc_lookahead=0 rc=crf mbtree=0 crf=19.0000 qcomp=0.70 qpmin=0 qpmax=69 qpstep=4 vbv_maxrate=50000 vbv_bufsize=62500 crf_max=0.0 nal_hrd=none ip_ratio=1.40 pb_ratio=1.10 aq=3:1.00
--[Information] [27.11.2013 10:20:37] frames fps kb/s elapsed remain size est.size
--[Information] [28.11.2013 5:43:03] x264 [info]: frame I:996 Avg QP:13.23 size:157138
--[Information] [28.11.2013 5:43:03] x264 [info]: frame P:33774 Avg QP:15.34 size: 83612
--[Information] [28.11.2013 5:43:03] x264 [info]: frame B:130644 Avg QP:16.25 size: 61365
--[Information] [28.11.2013 5:43:03] x264 [info]: consecutive B-frames: 1.3% 3.0% 4.5% 23.4% 18.0% 23.1% 10.4% 12.0% 2.6% 0.9% 0.3% 0.4% 0.1% 0.1%
--[Information] [28.11.2013 5:43:03] x264 [info]: mb I I16..4: 3.0% 90.6% 6.4%
--[Information] [28.11.2013 5:43:03] x264 [info]: mb P I16..4: 2.0% 39.0% 1.4% P16..4: 21.7% 26.9% 7.7% 0.0% 0.0% skip: 1.3%
--[Information] [28.11.2013 5:43:03] x264 [info]: mb B I16..4: 0.4% 12.8% 0.2% B16..8: 39.2% 23.7% 4.1% direct:11.7% skip: 7.9% L0:41.1% L1:40.5% BI:18.4%
--[Information] [28.11.2013 5:43:03] x264 [info]: 8x8 transform intra:93.7% inter:57.0%
--[Information] [28.11.2013 5:43:03] x264 [info]: coded y,uvDC,uvAC intra: 91.5% 86.3% 66.7% inter: 53.1% 41.0% 11.4%
--[Information] [28.11.2013 5:43:03] x264 [info]: i16 v,h,dc,p: 31% 13% 18% 38%
--[Information] [28.11.2013 5:43:03] x264 [info]: i8 v,h,dc,ddl,ddr,vr,hd,vl,hu: 10% 8% 26% 8% 9% 9% 8% 10% 12%
--[Information] [28.11.2013 5:43:03] x264 [info]: i4 v,h,dc,ddl,ddr,vr,hd,vl,hu: 29% 7% 14% 7% 10% 9% 8% 7% 9%
--[Information] [28.11.2013 5:43:03] x264 [info]: i8c dc,h,v,p: 43% 28% 18% 12%
--[Information] [28.11.2013 5:43:03] x264 [info]: Weighted P-Frames: Y:4.5% UV:2.8%
--[Information] [28.11.2013 5:43:03] x264 [info]: ref P L0: 54.8% 6.7% 23.0% 14.7% 0.8% 0.0%
--[Information] [28.11.2013 5:43:03] x264 [info]: ref B L0: 87.4% 10.2% 2.4%
--[Information] [28.11.2013 5:43:03] x264 [info]: ref B L1: 90.4% 9.6%
--[Information] [28.11.2013 5:43:03] x264 [info]: kb/s:12752.13
General
Complete name : D:\...Recruit.2003.1080p.BDRip.4xRus.Eng.HDCLUB.mkv
Format : Matroska
Format version : Version 2
File size : 15.2 GiB
Duration : 1h 54mn
Overall bit rate : 19.0 Mbps
Movie name : The.Recruit.2003.GER.1080p.BluRay.x264.DTS.Eng-E76
Encoded date : UTC 2014-01-22 10:28:17
Writing application : mkvmerge v5.8.0 ('No Sleep / Pillow') built on Sep 2 2012 15:37:04
Writing library : libebml v1.2.3 + libmatroska v1.3.0
Video
ID : 1
Format : AVC
Format/Info : Advanced Video Codec
Format profile : High@L4.1
Format settings, CABAC : Yes
Format settings, ReFrames : 4 frames
Codec ID : V_MPEG4/ISO/AVC
Duration : 1h 54mn
Bit rate : 12.4 Mbps
Width : 1 920 pixels
Height : 820 pixels
Display aspect ratio : 2.35:1
Frame rate mode : Constant
Frame rate : 23.976 fps
Color space : YUV
Chroma subsampling : 4:2:0
Bit depth : 8 bits
Scan type : Progressive
Bits/(Pixel*Frame) : 0.328
Stream size : 9.94 GiB (65%)
Title : The Recruit (2003)
Writing library : x264 core 138 r2358kMod 9e941d1
Encoding settings : cabac=1 / ref=4 / deblock=1:-3:-3 / analyse=0x3:0x113 / me=umh / subme=11 / psy=1 / fade_compensate=0.00 / psy_rd=1.05:0.00 / mixed_ref=1 / me_range=32 / chroma_me=1 / trellis=2 / 8x8dct=1 / cqm=0 / deadzone=21,11 / fast_pskip=1 / chroma_qp_offset=-2 / threads=6 / lookahead_threads=1 / sliced_threads=0 / nr=0 / decimate=1 / interlaced=0 / bluray_compat=0 / constrained_intra=0 / bframes=13 / b_pyramid=2 / b_adapt=2 / b_bias=0 / direct=1 / weightb=1 / open_gop=0 / weightp=2 / keyint=240 / keyint_min=23 / scenecut=40 / intra_refresh=0 / rc_lookahead=0 / rc=crf / mbtree=0 / crf=19.0000 / qcomp=0.70 / qpmin=0 / qpmax=69 / qpstep=4 / vbv_maxrate=50000 / vbv_bufsize=62500 / crf_max=0.0 / nal_hrd=none / ip_ratio=1.40 / pb_ratio=1.10 / aq=3:1.00
Language : English
Default : Yes
Forced : No
Matrix coefficients : BT.709
Audio #1
ID : 2
Format : AC-3
Format/Info : Audio Coding 3
Mode extension : CM (complete main)
Format settings, Endianness : Big
Codec ID : A_AC3
Duration : 1h 54mn
Bit rate mode : Constant
Bit rate : 192 Kbps
Channel(s) : 2 channels
Channel positions : Front: L R
Sampling rate : 48.0 KHz
Bit depth : 16 bits
Compression mode : Lossy
Stream size : 158 MiB (1%)
Title : DUB R5
Language : Russian
Default : Yes
Forced : No
Audio #2
ID : 3
Format : DTS
Format/Info : Digital Theater Systems
Codec ID : A_DTS
Duration : 1h 54mn
Bit rate mode : Constant
Bit rate : 1 510 Kbps
Channel(s) : 6 channels
Channel positions : Front: L C R, Side: L R, LFE
Sampling rate : 48.0 KHz
Bit depth : 16 bits
Compression mode : Lossy
Stream size : 1.21 GiB (8%)
Title : MVO Видеосервис
Language : Russian
Default : No
Forced : No
Audio #3
ID : 4
Format : DTS
Format/Info : Digital Theater Systems
Codec ID : A_DTS
Duration : 1h 54mn
Bit rate mode : Constant
Bit rate : 1 510 Kbps
Channel(s) : 6 channels
Channel positions : Front: L C R, Side: L R, LFE
Sampling rate : 48.0 KHz
Bit depth : 16 bits
Compression mode : Lossy
Stream size : 1.21 GiB (8%)
Title : MVO FDV
Language : Russian
Default : No
Forced : No
Audio #4
ID : 5
Format : DTS
Format/Info : Digital Theater Systems
Codec ID : A_DTS
Duration : 1h 54mn
Bit rate mode : Constant
Bit rate : 1 510 Kbps
Channel(s) : 6 channels
Channel positions : Front: L C R, Side: L R, LFE
Sampling rate : 48.0 KHz
Bit depth : 16 bits
Compression mode : Lossy
Stream size : 1.21 GiB (8%)
Title : AVO Живов
Language : Russian
Default : No
Forced : No
Audio #5
ID : 6
Format : DTS
Format/Info : Digital Theater Systems
Codec ID : A_DTS
Duration : 1h 54mn
Bit rate mode : Constant
Bit rate : 1 510 Kbps
Channel(s) : 6 channels
Channel positions : Front: L C R, Side: L R, LFE
Sampling rate : 48.0 KHz
Bit depth : 16 bits
Compression mode : Lossy
Stream size : 1.21 GiB (8%)
Title : Original
Language : English
Default : No
Forced : No
Text #1
ID : 7
Format : UTF-8
Codec ID : S_TEXT/UTF8
Codec ID/Info : UTF-8 Plain Text
Title : forced by Enclave76
Language : Russian
Default : No
Forced : No
Text #2
ID : 8
Format : UTF-8
Codec ID : S_TEXT/UTF8
Codec ID/Info : UTF-8 Plain Text
Title : full by Enclave76
Language : Russian
Default : No
Forced : No
Text #3
ID : 9
Format : UTF-8
Codec ID : S_TEXT/UTF8
Codec ID/Info : UTF-8 Plain Text
Language : English
Default : No
Forced : No
Menu
00:00:00.000 : en:Job Fair
00:02:41.327 : en:Cia Material
00:09:04.877 : en:The Interview
00:15:03.027 : en:The Farm
00:21:31.873 : en:Bug House
00:27:59.969 : en:Field Trip
00:36:17.508 : en:Choke Point
00:40:36.725 : en:The Noc
00:47:55.122 : en:Welcome to the Cia
00:56:18.875 : en:Contact
01:00:35.965 : en:Mail Delivery
01:09:15.401 : en:Breakfast
01:20:40.544 : en:Tracking Layla
01:27:52.517 : en:Coffee and Data
01:36:19.398 : en:Spartacus
01:45:11.388 : en:Spotlight
01:50:27.912 : en:End Credits
01:54:59.142 : en:The End

Скриншоты

source (GER) vs E76 vs CtrlHD (US/UK) vs [url=http://***/forum/viewtopic.php?t=1035912]Glow (US/UK)[/url]







Скачать

Скачать торрент!

Как скачивать? · Что такое торрент? · Рейтинг и ограничения

Сайт не распространяет и не хранит электронные версии произведений, а лишь предоставляет доступ к создаваемому пользователями каталогу ссылок на торрент-файлы, которые содержат только списки хеш-сумм

[Профиль] [ЛС]
Показать сообщения:    
Ответить на тему

Текущее время: Сегодня 06:29

Часовой пояс: GMT + 4



Вы не можете начинать темы
Вы не можете отвечать на сообщения
Вы не можете редактировать свои сообщения
Вы не можете удалять свои сообщения
Вы не можете голосовать в опросах
Вы не можете прикреплять файлы к сообщениям
Вы не можете скачивать файлы