Истории ужасов 2 / Horror Stories 2 / Mooseowon Iyagi 2 (Бум-Щик Чжун / Bum-Shik Jung, Хви Ким / Hui Kim, Сун-Хо Ким / Sung-Ho Kim) [2013, Южная Корея, ужасы, DVDRip] DVO (DeadSno & den904)

Ответить на тему
 
Автор Сообщение

user ®

Стаж: 13 лет

Сообщений: 15071

Пост Пост: #1 от 23-Янв-2014 10:00

[Цитировать]

Истории ужасов 2 / Horror Stories 2 / Mooseowon Iyagi 2
Страна: Южная Корея
Жанр: ужасы
Год выпуска: 2013
Продолжительность: 01:35:59
Перевод: Любительский (двухголосый закадровый) [DeadSno & den904]
Cубтитры: нет
Оригинальная аудиодорожка: нет
Режиссер: Бум-Щик Чжун / Bum-Shik Jung, Хви Ким / Hui Kim, Сун-Хо Ким / Sung-Ho Kim
В ролях: Пак Чжин Хи, Чжун Ин-Сун, Ким Чжи Вон, Ко Гён Пё, Ли Се Ён, Ли Су Хек, Пак Сон Ун, Ким Сыль-Ги, Сон Джун, Им Вон-хи
Описание: Фильм состоит из трех историй о призраках : 1. Скала 2. Боль смерти и 3. Когда зазвонит телефон...
Эти истории рассказываются девушкой-медиумом страховому агенту, который использует ее способности для своей работы .
Сэмпл: http://multi-up.com/943069
Качество видео: DVDRip
Формат видео: AVI
Видео: 720x304 (2.37:1), 24 fps, XviD build 73 ~1785 kbps avg, 0.34 bit/pixel
Аудио: 48 kHz, AC3 Dolby Digital, 2/0 (L,R) ch, ~192 kbps

MediaInfo

General
Complete name : Horror Stories 2.2013.avi
Format : AVI
Format/Info : Audio Video Interleave
File size : 1.33 GiB
Duration : 1h 35mn
Overall bit rate : 1 987 Kbps
Writing application : VirtualDubModRus 1.5.10.2 (build 2542/release)
Writing library : VirtualDubMod build 2542/release
Video
ID : 0
Format : MPEG-4 Visual
Format profile : Advanced Simple@L5
Format settings, BVOP : 1
Format settings, QPel : No
Format settings, GMC : No warppoints
Format settings, Matrix : Custom
Codec ID : XVID
Codec ID/Hint : XviD
Duration : 1h 35mn
Bit rate : 1 786 Kbps
Width : 720 pixels
Height : 304 pixels
Display aspect ratio : 2.35:1
Frame rate : 24.000 fps
Color space : YUV
Chroma subsampling : 4:2:0
Bit depth : 8 bits
Scan type : Progressive
Compression mode : Lossy
Bits/(Pixel*Frame) : 0.340
Stream size : 1.20 GiB (90%)
Writing library : XviD 73
Audio
ID : 1
Format : AC-3
Format/Info : Audio Coding 3
Mode extension : CM (complete main)
Format settings, Endianness : Big
Codec ID : 2000
Duration : 1h 35mn
Bit rate mode : Constant
Bit rate : 192 Kbps
Channel count : 2 channels
Channel positions : Front: L R
Sampling rate : 48.0 KHz
Bit depth : 16 bits
Compression mode : Lossy
Stream size : 132 MiB (10%)
Alignment : Split accross interleaves
Interleave, duration : 42 ms (1.00 video frame)
Interleave, preload duration : 500 ms

Скриншоты

Скачать

Скачать торрент! Истории ужасов 2 / Horror Stories 2 / Mooseowon Iyagi 2 (Бум-Щик Чжун / Bum-Shik Jung, Хви Ким / Hui Kim, Сун-Хо Ким / Sung-Ho Kim) [2013, Южная Корея, ужасы, DVDRip] DVO (DeadSno & den904)

Как скачивать? · Что такое торрент? · Рейтинг и ограничения

Сайт не распространяет и не хранит электронные версии произведений, а лишь предоставляет доступ к создаваемому пользователями каталогу ссылок на торрент-файлы, которые содержат только списки хеш-сумм

[Профиль] [ЛС]
Показать сообщения:    
Ответить на тему

Текущее время: Сегодня 16:44

Часовой пояс: GMT + 4



Вы не можете начинать темы
Вы не можете отвечать на сообщения
Вы не можете редактировать свои сообщения
Вы не можете удалять свои сообщения
Вы не можете голосовать в опросах
Вы не можете прикреплять файлы к сообщениям
Вы не можете скачивать файлы