Я должен купить новые туфли / Придется купить новые туфли / I Have To Buy New Shoes / Atarashii kutsu wo kawanakucha (Эрико Китагава / Eriko Kitagawa) [2012, Япония, романтика, HDRip] DVO (Kedra & Hydra)

Ответить на тему
 
Автор Сообщение

user ®

Стаж: 13 лет

Сообщений: 15071

Пост Пост: #1 от 23-Янв-2014 06:50

[Цитировать]

Придется купить новые туфли / I Have To Buy New Shoes / Atarashii Kutsu wo Kawanakucha
-Страна: Япония
Жанр: романтика
Год выпуска: 2012
Продолжительность: 01ч:54м-Перевод: Любительский (двухголосый закадровый) Kedra & Hydra
Cубтитры: нет-Режиссер: Эрико Китагава / Eriko Kitagawa
В ролях:
Михо Накаяма - Аой
Осаму Мукаи - Сэн-Описание: Журналистка независимой газеты Тэсигахара живет в Париже.
Ягами — фотограф, который приехал в Париж по настоянию своей младшей сестры Судзумэ.
В течение последующих трех дней они влюбляются.
А между тем, Судзумэ встречает своего бойфренда Канго…
@ (asianwiki)
Качество видео: HDRip
Формат видео: AVI
Видео: XviD MPEG-4, 720x400, 16:9, 23.976 fps, 1 508 kbps
Аудио: MP3, 48 kHz, 192 kbps, 2 канала
Озвучка: Kedra & Hydra
Перевод предоставлен ФСГ Альянс
Переводчик: MeowBios
Редактор: Plappi

MediaInfo

Video
ID : 0
Format : MPEG-4 Visual
Format profile : Advanced Simple@L5
Format settings, BVOP : 1
Format settings, QPel : No
Format settings, GMC : No warppoints
Format settings, Matrix : Default (MPEG)
Codec ID : DX50
Codec ID/Hint : DivX 5
Duration : 1h 54mn
Bit rate : 1 508 Kbps
Width : 720 pixels
Height : 400 pixels
Display aspect ratio : 16:9
Frame rate : 23.976 fps
Color space : YUV
Chroma subsampling : 4:2:0
Bit depth : 8 bits
Scan type : Progressive
Compression mode : Lossy
Bits/(Pixel*Frame) : 0.218
Stream size : 1.21 GiB (88%)
Writing library : XviD 64
Audio
ID : 1
Format : MPEG Audio
Format version : Version 1
Format profile : Layer 3
Mode : Joint stereo
Mode extension : MS Stereo
Codec ID : 55
Codec ID/Hint : MP3
Duration : 1h 54mn
Bit rate mode : Constant
Bit rate : 192 Kbps
Channel count : 2 channels
Sampling rate : 48.0 KHz
Compression mode : Lossy
Stream size : 158 MiB (11%)
Alignment : Aligned on interleaves
Interleave, duration : 42 ms (1.00 video frame)
Interleave, preload duration : 504 ms
Title : Russian [Kedra & Hydra]
Writing library : LAME3.99r
Encoding settings : -m j -V 4 -q 3 -lowpass 20 -b 192

Скриншот c названием фильма

Скриншоты

Скачать

Скачать торрент! Я должен купить новые туфли / Придется купить новые туфли / I Have To Buy New Shoes / Atarashii kutsu wo kawanakucha (Эрико Китагава / Eriko Kitagawa) [2012, Япония, романтика, HDRip] DVO (Kedra & Hydra)

Как скачивать? · Что такое торрент? · Рейтинг и ограничения

Сайт не распространяет и не хранит электронные версии произведений, а лишь предоставляет доступ к создаваемому пользователями каталогу ссылок на торрент-файлы, которые содержат только списки хеш-сумм

[Профиль] [ЛС]
Показать сообщения:    
Ответить на тему

Текущее время: Сегодня 16:19

Часовой пояс: GMT + 4



Вы не можете начинать темы
Вы не можете отвечать на сообщения
Вы не можете редактировать свои сообщения
Вы не можете удалять свои сообщения
Вы не можете голосовать в опросах
Вы не можете прикреплять файлы к сообщениям
Вы не можете скачивать файлы