Путешествие в прошлое / Mausam (Сампуран Сингх Гульзар / Sampuran Singh Gulzar) [1975, Индия, Мелодрама, музыкальный, DVDRip] DVO + original + Sub Rus

Ответить на тему
 
Автор Сообщение

user ®

Стаж: 12 лет

Сообщений: 15124

Пост Пост: #1 от 23-Янв-2014 06:50

[Цитировать]

Путешествие в прошлое / Mausam--
Страна: Индия
Жанр: Мелодрама, музыкальный
Год выпуска: 1975
Продолжительность: 02:17:12
Перевод: Профессиональный двухголосый
Cубтитры: Русские
Оригинальная аудиодорожка: хинди--Режиссер: Сампуран Сингх Гульзар / Sampuran Singh Gulzar--В ролях: Шармила Тагор, Санджив Кумар, Ом Шивпури, Агха, Сатиендра Капур, Дина Патхак, Дина Патхак, Лили Чакраварти, Т.П. Джайн, Пинчу Капур, Мринал Махержи, Мринал Махержи, Шекхар Пурохит, Ёгендра, Насир, Р. Чопра, Мона Раджпут, Балдев Мехта, Анвар, Чанду, К.С. Дюбэ, Ананд Пал, Рамнат--Описание: Во время путешествия по Дарджилингу Амарнатх Джилл получил травму ноги и был вынужден лечиться у местного целителя Хархары Тапа. Амарнатх и дочь целителя Чанда влюбляются друг в друга. Вскоре Амарнатх уезжает, обещав вернуться. Но лишь через 20 лет он возвращается в Дарджилинг и узнает, что у Чанда умерла, но у нее есть дочь от другого мужчины. Поиски дочери возлюбленной приводят его в бордель, где работает Кайли. Каков будет следующий шаг Амарнатха…--Награды:
Национальная премия за лучшую женскую роль - Sharmila Tagore
Национальная премия за второй лучший игровой фильм [1] Mausam
Filmfare лучший фильм - Mausam
Filmfare Лучший режиссер - Gulzar
Номинация:
Filmfare Лучший актер - Sanjeev Kumar
Filmfare Лучшая актриса - Sharmila Tagore
Filmfare Лучшая актриса второго плана - Dina Pathak
Filmfare Лучшая история - Kamleshwar
Filmfare Лучшая музыка - Madan Mohan
Filmfare Лучшая Автор текста - Gulzar--Исходник: DVDRip без перевода
Русский звук взята из SATRip версии
Сведение и синхронизации звука: pca1962--
Сэмпл: http://multi-up.com/942931
Качество видео: DVDRip
Формат видео: AVI
Видео: XviD, 640x480, 23.97 fps, 992 kbps
Аудио: AC3, 48 kHz, 2.0 (stereo), 192 kbps (русский)
Аудио 2: AC3, 48 kHz, 5.1 (6 ch), 320 kbps (хинди)
Формат субтитров: softsub (SRT)-
-

MediaInfo

=== Общие ===
Полное имя : Puteshestvie.v.proshloe.1975.DVDRip.XviD.pca1962.avi
Формат : AVI
Описание формата : Audio Video Interleave
Размер файла : 1.46 Гб
Длительность : 2ч 17мин
Общий битрейт : 1 521 кбит/сек
Програмное обеспечение : VirtualDubModRus 1.5.10.2 (build 2542/release)
Кодирующая библиотека : VirtualDubMod build 2542/release
=== Видео ===
ID (Идентификатор) : 0
Формат : MPEG-4 Visual
Профиль формата : Advanced Simple@L5
Параметр 'BVOP' : 2
Параметр 'QPel' : Нет
Параметр 'GMC' : No warppoints
Параметр 'Matrix' : Default (H.263)
Идентификатор кодека : XVID
Подпись кодека : XviD
Длительность : 2ч 17мин
Битрейт : 992 кбит/сек
Ширина кадра : 640 пикселей
Высота кадра : 480 пикселей
Соотношение сторон : 4:3
Частота кадров : 23.976 кадров/сек
Цветовое пространство : YUV
Субдискретизация насыщенности : 4:2:0
Глубина (разрядность) : 8 bits
Тип развертки : Прогрессивная
Режим сжатия : С потерями
Бит/(пиксель*кадр) : 0.208
Размер потока : 973 Мб (65%)
Кодирующая библиотека : XviD 1.1.2 (UTC 2006-11-01)
=== Аудио 1 ===
ID (Идентификатор) : 1
Формат : AC-3
Описание формата : Audio Coding 3
Mode extension : CM (complete main)
Идентификатор кодека : 2000
Длительность : 2ч 17мин
Тип битрейта : Постоянный
Битрейт : 192 кбит/сек
Канал(ы) : 2 каналов
Расположение каналов : Front: L R
Частота дискретизации : 48.0 кГц
Глубина (разрядность) : 16 bits
Режим сжатия : С потерями
Размер потока : 188 Мб (13%)
Расположение потока : Split accross interleaves
Период чередования : 33 мс (1.00 video frame)
Предварительная загрузка : 500 мс
=== Аудио 2 ===
ID (Идентификатор) : 2
Формат : AC-3
Описание формата : Audio Coding 3
Mode extension : CM (complete main)
Идентификатор кодека : 2000
Длительность : 2ч 17мин
Тип битрейта : Постоянный
Битрейт : 320 кбит/сек
Канал(ы) : 6 каналов
Расположение каналов : Front: L C R, Side: L R, LFE
Частота дискретизации : 48.0 кГц
Глубина (разрядность) : 16 bits
Режим сжатия : С потерями
Размер потока : 314 Мб (21%)
Расположение потока : Split accross interleaves
Период чередования : 33 мс (1.00 video frame)
Предварительная загрузка : 500 мс

Скриншот c названием фильма

Скачать

Скачать торрент! Путешествие в прошлое / Mausam (Сампуран Сингх Гульзар / Sampuran Singh Gulzar) [1975, Индия, Мелодрама, музыкальный, DVDRip] DVO + original + Sub Rus

Как скачивать? · Что такое торрент? · Рейтинг и ограничения

Сайт не распространяет и не хранит электронные версии произведений, а лишь предоставляет доступ к создаваемому пользователями каталогу ссылок на торрент-файлы, которые содержат только списки хеш-сумм

[Профиль] [ЛС]
Показать сообщения:    
Ответить на тему

Текущее время: Сегодня 13:32

Часовой пояс: GMT + 4



Вы не можете начинать темы
Вы не можете отвечать на сообщения
Вы не можете редактировать свои сообщения
Вы не можете удалять свои сообщения
Вы не можете голосовать в опросах
Вы не можете прикреплять файлы к сообщениям
Вы не можете скачивать файлы