Афера Томаса Крауна / The Thomas Crown Affair (Джон МакТирнан / John McTiernan) [1999, США, Триллер, мелодрама, BDRemux 1080p] 2x MVO + 2x DVO + 2x AVO (Гаврилов, Живов) + Sub (rus, eng) + Original Eng + Ukr

Ответить на тему
 
Автор Сообщение

user ®

Стаж: 7 лет 7 месяцев

Сообщений: 20008

Пост Пост: #1 от 22-Янв-2014 20:55

[Цитировать]

Афера Томаса Крауна / The Thomas Crown Affair
Страна: США
Студия: Metro-Goldwyn-Mayer
Жанр: Триллер, мелодрама
Год выпуска: 1999
Продолжительность: 01:53:17
Перевод 1: Профессиональный (многоголосый закадровый) Liga HQ
Перевод 2: Авторский (одноголосый закадровый) Андрей Гаврилов
Перевод 3: Авторский (одноголосый закадровый) Юрий Живов
Перевод 4: Профессиональный (двухголосый закадровый) 20th Century Fox
Перевод 5: Профессиональный (многоголосый закадровый) НТВ+
Перевод 6: Профессиональный (двухголосый закадровый) DVD-Магия (VHS Rip)
Cубтитры: русские, английские.
Оригинальная аудиодорожка: английский
Режиссер: Джон МакТирнан / John McTiernan
В ролях: Пирс Броснан, Рене Руссо, Дэнис Лири, Бен Газзара, Фрэнки Фэйсон, Фриц Уивер, Чарльз Китинг, Марк Маргулис, Фэй Данауэй, Майкл Ломбард
Описание: Невероятно богатый и привлекательный мультимиллионер Томас Краун (Броснан) разрабатывает и исполняет дерзкий план похищения бесценной картины Клода Мане средь бела дня из тщательно охраняемого музея на Манхэттене. Инспектор страховой компании Кэтрин Бэннинг (Руссо), приступившей к розыску произведения искусства - дама умная, и сразу понимает, кто вор, но не располагает доказательствами для разоблачения. Именно Кэтрин станет для мистера Крауна самым достойным противником, которого ему, любителю острых ощущений, так не хватает в жизни ...
Доп. информация: Дорожка №2, с Андреем Гавриловым, получена путём наложения чистого голоса на центральный канал декодированной оригинальной дорожки DTS-HD MA.
За предоставленный чистый голос Андрея Юрьевича Гаврилова, Большое Спасибо dunhill200
Сохранены оригинальные чаптеры как на Blu-Ray.
Сэмпл: http://sendfile.su/926668
Тип релиза: BDRemux 1080p
Контейнер: MKV
Видео: MPEG-4 AVC Video 31050 кбит / 1080p / 23,976 кадров/1920 х 1080 / 16:9 / High Profile 4.1
Аудио 1: Russian DTS 5.1 / 48 kHz / 755 kbps / 24-bit - Liga HQ
Аудио 2: Russian DTS-HD MA 5.1 / 48 kHz / 3870 kbps / 24-bit (DTS Core: 5.1 / 48 kHz / 1509 kbps / 24-bit) - Андрей Гаврилов
Аудио 3: Russian DTS-HD MA 5.1 / 48 kHz / 3798 kbps / 24-bit (DTS Core: 5.1 / 48 kHz / 1509 kbps / 24-bit) - Юрий Живов
Аудио 4: Russian AC3 2.0 / 48 kHz / 224 kbps - 20th Century Fox
Аудио 5: Russian AC3 2.0 / 48 kHz / 192 kbps - НТВ+
Аудио 6: Russian AC3 2.0 / 48 kHz / 384 kbps - DVD-Магия (VHS Rip)
Аудио 7: Ukrainian AC3 2.0 / 48 kHz / 192 kbps - Так Треба Продакшн
Аудио 8: English DTS-HD MA 5.1 / 48 kHz / 4267 kbps / 24-bit (DTS Core: 5.1 / 48 kHz / 1509 kbps / 24-bit)
Формат субтитров: softsub (SRT)

MediaInfo

Общее
Уникальный идентификатор : 203011252816238034907000183251664635593 (0x98BA8B8AAAAD57A58B2C8E3868EC06C9)
Полное имя : D:\Torrent - Раздача\ATK_BDRemux_1080_by_Tehnar71.mkv
Формат : Matroska
Версия формата : Version 4 / Version 2
Размер файла : 34,9 Гбайт
Продолжительность : 1 ч. 53 м.
Режим общего битрейта : Переменный
Общий поток : 44,2 Мбит/сек
Дата кодирования : UTC 2014-01-21 14:35:19
Программа кодирования : mkvmerge v6.7.0 ('Back to the Ground') 64bit built on Jan 8 2014 15:10:52
Библиотека кодирования : libebml v1.3.0 + libmatroska v1.4.1
Видео
Идентификатор : 1
Формат : AVC
Формат/Информация : Advanced Video Codec
Профиль формата : High@L4.1
Параметр CABAC формата : Да
Параметр ReFrames формата : 4 кадра
Идентификатор кодека : V_MPEG4/ISO/AVC
Продолжительность : 1 ч. 53 м.
Вид битрейта : Переменный
Максимальный битрейт : 33,0 Мбит/сек
Ширина : 1920 пикселей
Высота : 1080 пикселей
Соотношение сторон : 16:9
Режим частоты кадров : Постоянный
Частота кадров : 23,976 кадра/сек
Цветовое пространство : YUV
Субдискретизация насыщенности : 4:2:0
Битовая глубина : 8 бит
Тип развёртки : Прогрессивная
Default : Да
Forced : Нет
Основные цвета : BT.709
Характеристики трансфера : BT.709
Коэффициенты матрицы : BT.709
Аудио #1
Идентификатор : 2
Формат : DTS
Формат/Информация : Digital Theater Systems
Режим : 16
Параметр Endianness формата : Big
Идентификатор кодека : A_DTS
Продолжительность : 1 ч. 53 м.
Вид битрейта : Постоянный
Битрейт : 755 Кбит/сек
Каналы : 6 каналов
Расположение каналов : Front: L C R, Side: L R, LFE
Частота : 48,0 КГц
Битовая глубина : 24 бит
Метод сжатия : С потерями
Размер потока : 611 Мбайт (2%)
Заголовок : русский Закадровый Liga HQ DTS 5.1
Язык : Russian
Default : Нет
Forced : Нет
Аудио #2
Идентификатор : 3
Формат : DTS
Формат/Информация : Digital Theater Systems
Профиль формата : MA / Core
Режим : 16
Параметр Endianness формата : Big
Идентификатор кодека : A_DTS
Продолжительность : 1 ч. 53 м.
Вид битрейта : Переменный
Битрейт : Неизвестно / 1509 Кбит/сек
Каналы : 6 каналов
Расположение каналов : Front: L C R, Side: L R, LFE
Частота : 48,0 КГц
Битовая глубина : 24 бит
Метод сжатия : Без потерь / Lossy
Заголовок : русский Авторский Гаврилов DTS-HD MA 5.1
Язык : Russian
Default : Да
Forced : Нет
Аудио #3
Идентификатор : 4
Формат : DTS
Формат/Информация : Digital Theater Systems
Профиль формата : MA / Core
Режим : 16
Параметр Endianness формата : Big
Идентификатор кодека : A_DTS
Продолжительность : 1 ч. 53 м.
Вид битрейта : Переменный
Битрейт : Неизвестно / 1509 Кбит/сек
Каналы : 6 каналов
Расположение каналов : Front: L C R, Side: L R, LFE
Частота : 48,0 КГц
Битовая глубина : 24 бит
Метод сжатия : Без потерь / Lossy
Заголовок : русский Авторский Живов DTS-HD MA 5.1
Язык : Russian
Default : Нет
Forced : Нет
Аудио #4
Идентификатор : 5
Формат : AC-3
Формат/Информация : Audio Coding 3
Профиль формата : Dolby Digital
Расширение режима : CM (complete main)
Параметр Endianness формата : Big
Идентификатор кодека : A_AC3
Продолжительность : 1 ч. 53 м.
Вид битрейта : Постоянный
Битрейт : 224 Кбит/сек
Каналы : 2 канала
Расположение каналов : Front: L R
Частота : 48,0 КГц
Битовая глубина : 16 бит
Метод сжатия : С потерями
Размер потока : 182 Мбайт (1%)
Заголовок : русский Закадровый 20-й Век Фокс АС3 2.0
Язык : Russian
Default : Нет
Forced : Нет
Аудио #5
Идентификатор : 6
Формат : AC-3
Формат/Информация : Audio Coding 3
Расширение режима : CM (complete main)
Параметр Endianness формата : Big
Идентификатор кодека : A_AC3
Продолжительность : 1 ч. 53 м.
Вид битрейта : Постоянный
Битрейт : 192 Кбит/сек
Каналы : 2 канала
Расположение каналов : Front: L R
Частота : 48,0 КГц
Битовая глубина : 16 бит
Метод сжатия : С потерями
Размер потока : 156 Мбайт (0%)
Заголовок : русский Закадровый НТВ+ АС3 2.0
Язык : Russian
Default : Нет
Forced : Нет
Аудио #6
Идентификатор : 7
Формат : AC-3
Формат/Информация : Audio Coding 3
Расширение режима : CM (complete main)
Параметр Endianness формата : Big
Идентификатор кодека : A_AC3
Продолжительность : 1 ч. 53 м.
Вид битрейта : Постоянный
Битрейт : 384 Кбит/сек
Каналы : 2 канала
Расположение каналов : Front: L R
Частота : 48,0 КГц
Битовая глубина : 16 бит
Метод сжатия : С потерями
Размер потока : 311 Мбайт (1%)
Заголовок : русский Закадровый DVD-Магия (VHS Rip) AC3 2.0
Язык : Russian
Default : Нет
Forced : Нет
Аудио #7
Идентификатор : 8
Формат : AC-3
Формат/Информация : Audio Coding 3
Расширение режима : CM (complete main)
Параметр Endianness формата : Big
Идентификатор кодека : A_AC3
Продолжительность : 1 ч. 53 м.
Вид битрейта : Постоянный
Битрейт : 192 Кбит/сек
Каналы : 2 канала
Расположение каналов : Front: L R
Частота : 48,0 КГц
Битовая глубина : 16 бит
Метод сжатия : С потерями
Размер потока : 156 Мбайт (0%)
Заголовок : украинский Закадровый Так Треба Продакшн АС3 2.0
Язык : Ukrainian
Default : Нет
Forced : Нет
Аудио #8
Идентификатор : 9
Формат : DTS
Формат/Информация : Digital Theater Systems
Профиль формата : MA / Core
Режим : 16
Параметр Endianness формата : Big
Идентификатор кодека : A_DTS
Продолжительность : 1 ч. 53 м.
Вид битрейта : Переменный
Битрейт : Неизвестно / 1509 Кбит/сек
Каналы : 6 каналов
Расположение каналов : Front: L C R, Side: L R, LFE
Частота : 48,0 КГц
Битовая глубина : 24 бит
Метод сжатия : Без потерь / Lossy
Заголовок : английский оригинал DTS-HD MA 5.1
Язык : English
Default : Нет
Forced : Нет
Текст #1
Идентификатор : 10
Формат : UTF-8
Идентификатор кодека : S_TEXT/UTF8
Идентификатор кодека/Информация : UTF-8 Plain Text
Заголовок : русские субтитры
Язык : Russian
Default : Да
Forced : Нет
Текст #2
Идентификатор : 11
Формат : UTF-8
Идентификатор кодека : S_TEXT/UTF8
Идентификатор кодека/Информация : UTF-8 Plain Text
Заголовок : английские субтитры
Язык : English
Default : Нет
Forced : Нет
Меню
00:00:00.000 : :(безымянный)
00:04:43.116 : :(безымянный)
00:08:50.112 : :(безымянный)
00:10:42.850 : :(безымянный)
00:18:41.745 : :(безымянный)
00:27:00.744 : :(безымянный)
00:33:09.487 : :(безымянный)
00:38:41.902 : :(безымянный)
00:44:29.958 : :(безымянный)
00:49:51.488 : :(безымянный)
00:55:47.093 : :(безымянный)
01:04:54.432 : :(безымянный)
01:10:20.424 : :(безымянный)
01:15:39.576 : :(безымянный)
01:22:20.769 : :(безымянный)
01:28:21.754 : :(безымянный)
01:32:35.841 : :(безымянный)
01:38:21.687 : :(безымянный)
01:43:19.234 : :(безымянный)
01:47:45.500 : :(безымянный)

Скриншоты

Скачать

Скачать торрент!

Как скачивать? · Что такое торрент? · Рейтинг и ограничения

Сайт не распространяет и не хранит электронные версии произведений, а лишь предоставляет доступ к создаваемому пользователями каталогу ссылок на торрент-файлы, которые содержат только списки хеш-сумм

[Профиль] [ЛС]
Показать сообщения:    
Ответить на тему

Текущее время: Сегодня 17:30

Часовой пояс: GMT + 4



Вы не можете начинать темы
Вы не можете отвечать на сообщения
Вы не можете редактировать свои сообщения
Вы не можете удалять свои сообщения
Вы не можете голосовать в опросах
Вы не можете прикреплять файлы к сообщениям
Вы не можете скачивать файлы