Забери мою душу / My Soul to Take (Уэс Крэйвен / Wes Craven) [2010, США, ужасы, триллер, BDRip 720p] Dub (R5) + Sub Eng + Original Eng

Ответить на тему
 
Автор Сообщение

user ®

Стаж: 7 лет 7 месяцев

Сообщений: 20008

Пост Пост: #1 от 22-Янв-2014 03:00

[Цитировать]

Забери мою душу / My Soul to Take
«Что, если его душа в одном из нас?»- Страна: США
Студия: Relativity Media
Жанр: ужасы, триллер
Год выпуска: 2010
Продолжительность: 01:47:17-Перевод: Профессиональный (дублированный) R5
Cубтитры: английские
Оригинальная аудиодорожка: английский-Режиссер: Уэс Крэйвен / Wes Craven
В ролях: Макс Тириот, Джон Магаро, Дэнзел Уитакер, Ник Лашэвэй, Эмили Миде, Зена Грэй, Полина Ольсцунски, Джереми Чу, Рауль Эспарза, Джессика Хехт
Описание: Сонный городишко Ривертон ожидает исполнения пророчества: серийный убийца должен вернуться на место своих преступлений, чтобы убить семерых детей, родившихся в день его смерти. Но действительно ли маньяк мертв? Или зло переселилось в тело неосторожного подростка, которому теперь предстоит завершить страшную миссию...
Рип от EbP
Сэмпл: sendfile→, rusfolder→
Тип релиза: BDRip 720p
Контейнер: MKV
Видео: 1280 x 544 (2.353), x264, 2pass, L4.1, 23.976 fps, 6000 Kbps
Аудио: 48 kHz, DD 5.1 - 448 kbps |Дубляж, R5|
Аудио 2: 48 kHz, DD 5.1 - 640 kbps |Оригинал|

MediaInfo

Полное имя : My.Soul.to.Take.2010.720p.BluRay.DD5.1.x264-EbP.Rus.Eng.mkv
Формат : Matroska
Версия формата : Version 4 / Version 2
Размер файла : 5,31 Гбайт
Продолжительность : 1 ч. 47 м.
Общий поток : 7084 Кбит/сек
Название фильма : My Soul to Take (2010) | Rip by EbP
Дата кодирования : UTC 2014-01-15 15:06:38
Программа кодирования : mkvmerge v6.5.0 ('Isn't she lovely') built on Oct 20 2013 12:50:05
Библиотека кодирования : libebml v1.3.0 + libmatroska v1.4.1
Видео
Идентификатор : 1
Формат : AVC
Формат/Информация : Advanced Video Codec
Профиль формата : High@L4.1
Параметр CABAC формата : Да
Параметр ReFrames формата : 12 кадров
Идентификатор кодека : V_MPEG4/ISO/AVC
Продолжительность : 1 ч. 47 м.
Битрейт : 6000 Кбит/сек
Ширина : 1280 пикселей
Высота : 544 пикселя
Соотношение сторон : 2,35:1
Режим частоты кадров : Постоянный
Частота кадров : 23,976 кадра/сек
Цветовое пространство : YUV
Субдискретизация насыщенности : 4:2:0
Битовая глубина : 8 бит
Тип развёртки : Прогрессивная
Бит/(Пиксели*Кадры) : 0.359
Размер потока : 4,39 Гбайт (83%)
Заголовок : My Soul to Take (2010) by Djex
Библиотека кодирования : x264 core 112 r1867 22bfd31
Настройки программы : cabac=1 / ref=12 / deblock=1:-3:-3 / analyse=0x3:0x113 / me=tesa / subme=10 / psy=1 / psy_rd=1.00:0.00 / mixed_ref=1 / me_range=16 / chroma_me=1 / trellis=2 / 8x8dct=1 / cqm=0 / deadzone=21,11 / fast_pskip=0 / chroma_qp_offset=-2 / threads=12 / sliced_threads=0 / nr=0 / decimate=0 / interlaced=0 / constrained_intra=0 / bframes=8 / b_pyramid=2 / b_adapt=2 / b_bias=0 / direct=3 / weightb=1 / open_gop=0 / weightp=2 / keyint=250 / keyint_min=23 / scenecut=40 / intra_refresh=0 / rc=2pass / mbtree=0 / bitrate=6000 / ratetol=1.0 / qcomp=0.60 / qpmin=0 / qpmax=51 / qpstep=4 / cplxblur=20.0 / qblur=0.5 / ip_ratio=1.40 / pb_ratio=1.30 / aq=1:0.90
Язык : English
Default : Нет
Forced : Нет
Аудио #1
Идентификатор : 2
Формат : AC-3
Формат/Информация : Audio Coding 3
Расширение режима : CM (complete main)
Параметр Endianness формата : Big
Идентификатор кодека : A_AC3
Продолжительность : 1 ч. 47 м.
Вид битрейта : Постоянный
Битрейт : 448 Кбит/сек
Каналы : 6 каналов
Расположение каналов : Front: L C R, Side: L R, LFE
Частота : 48,0 КГц
Битовая глубина : 16 бит
Метод сжатия : С потерями
Размер потока : 344 Мбайт (6%)
Заголовок : DD 5.1 - 448 kbps |Дубляж, R5|
Язык : Russian
Default : Да
Forced : Нет
Аудио #2
Идентификатор : 3
Формат : AC-3
Формат/Информация : Audio Coding 3
Расширение режима : CM (complete main)
Параметр Endianness формата : Big
Идентификатор кодека : A_AC3
Продолжительность : 1 ч. 47 м.
Вид битрейта : Постоянный
Битрейт : 640 Кбит/сек
Каналы : 6 каналов
Расположение каналов : Front: L C R, Side: L R, LFE
Частота : 48,0 КГц
Битовая глубина : 16 бит
Метод сжатия : С потерями
Размер потока : 491 Мбайт (9%)
Заголовок : DD 5.1 - 640 kbps |Оригинал|
Язык : English
Default : Нет
Forced : Нет
Текст #1
Идентификатор : 4
Формат : UTF-8
Идентификатор кодека : S_TEXT/UTF8
Идентификатор кодека/Информация : UTF-8 Plain Text
Заголовок : SDH
Язык : English
Default : Нет
Forced : Нет
Текст #2
Идентификатор : 5
Формат : UTF-8
Идентификатор кодека : S_TEXT/UTF8
Идентификатор кодека/Информация : UTF-8 Plain Text
Язык : Spanish
Default : Нет
Forced : Нет
Текст #3
Идентификатор : 6
Формат : UTF-8
Идентификатор кодека : S_TEXT/UTF8
Идентификатор кодека/Информация : UTF-8 Plain Text
Язык : French
Default : Нет
Forced : Нет
Текст #4
Идентификатор : 7
Формат : UTF-8
Идентификатор кодека : S_TEXT/UTF8
Идентификатор кодека/Информация : UTF-8 Plain Text
Язык : Portuguese
Default : Нет
Forced : Нет
Текст #5
Идентификатор : 8
Формат : UTF-8
Идентификатор кодека : S_TEXT/UTF8
Идентификатор кодека/Информация : UTF-8 Plain Text
Язык : Romanian
Default : Нет
Forced : Нет
Меню
00:00:00.000 : en:00:00:00.000
00:05:37.379 : en:00:05:37.379
00:09:26.232 : en:00:09:26.232
00:16:43.878 : en:00:16:43.878
00:19:52.316 : en:00:19:52.316
00:24:41.897 : en:00:24:41.897
00:29:31.979 : en:00:29:31.979
00:35:33.840 : en:00:35:33.840
00:40:49.113 : en:00:40:49.113
00:46:28.327 : en:00:46:28.327
00:51:44.643 : en:00:51:44.643
00:57:46.463 : en:00:57:46.463
00:59:57.427 : en:00:59:57.427
01:05:49.612 : en:01:05:49.612
01:12:55.371 : en:01:12:55.371
01:17:46.829 : en:01:17:46.829
01:19:50.953 : en:01:19:50.953
01:25:42.512 : en:01:25:42.512
01:29:13.390 : en:01:29:13.390
01:38:34.575 : en:01:38:34.575

Скриншоты

Source vs EbP (6000 kbps) vs TWiZTED (7228 kbps)





Скачать

Скачать торрент!

Как скачивать? · Что такое торрент? · Рейтинг и ограничения

Сайт не распространяет и не хранит электронные версии произведений, а лишь предоставляет доступ к создаваемому пользователями каталогу ссылок на торрент-файлы, которые содержат только списки хеш-сумм

[Профиль] [ЛС]
Показать сообщения:    
Ответить на тему

Текущее время: Сегодня 07:01

Часовой пояс: GMT + 4



Вы не можете начинать темы
Вы не можете отвечать на сообщения
Вы не можете редактировать свои сообщения
Вы не можете удалять свои сообщения
Вы не можете голосовать в опросах
Вы не можете прикреплять файлы к сообщениям
Вы не можете скачивать файлы