Дерзкий / Fresh (Боаз Якин / Boaz Yakin) [1994, США, Франция, триллер, драма, криминал, BDRip 720p] AVO (Вартан Дохалов) + Original Eng

Ответить на тему
 
Автор Сообщение

user ®

Стаж: 7 лет 7 месяцев

Сообщений: 20008

Пост Пост: #1 от 22-Янв-2014 03:00

[Цитировать]

Дерзкий / Fresh- Страна: США, Франция
Жанр: Триллер, драма, криминал
Год выпуска: 1994
Продолжительность: 01:53:55-Перевод: Авторский (одноголосый закадровый) [Вартан Дохалов]
Cубтитры: нет
Оригинальная аудио дорожка: английский-Режиссер: Боаз Якин / Boaz Yakin
В ролях: Шон Нельсон, Джанкарло Эспозито, Сэмюэл Л. Джексон, Н’Буш Райт, Рон Брайс, Жан-Клод Ла Марр, Хосе Суньига, Луис Лантигуа, Юл Васкез, Шерил Фриман
Описание: Умному и сообразительному подростку по кличке Дерзкий удается вырваться из замкнутого круга преступности, наркотиков, насилия, бедности и безысходности. Вырвался он, однако, нестандартным и неоднозначным образом. Для этого он предал и подставил всех, кого ему было нужно использовать для достижения своей цели, и проделал это с хирургической точностью (пригодились уроки игры в шахматы).-Сэмпл: http://multi-up.com/942660
Тип релиза: BDRip 720p
Контейнер: MKV-Видео: 1280x720, 5356 kbps, 23.976 kbps
Аудио 1: Русский 48 kHz, AC3 2.0, 192 kbps | Одноголосый закадровый [Вартан Дохалов]
Аудио 2: Английский 48 kHz, DTS 2.0, 1509 Kbps-

MediaInfo

General
Unique ID : 208152845309298358960686832125121638077 (0x9C98C79F99B107A881D831DD82F3AEBD)
Complete name : Fresh.1994.720p.BluRay.X264-AMIABLE.mkv
Format : Matroska
Format version : Version 4 / Version 2
File size : 5.62 GiB
Duration : 1h 53mn
Overall bit rate : 7 057 Kbps
Encoded date : UTC 2014-01-21 13:00:08
Writing application : mkvmerge v6.7.0 ('Back to the Ground') 32bit built on Jan 8 2014 15:03:17
Writing library : libebml v1.3.0 + libmatroska v1.4.1
Video #1
ID : 1
Format : AVC
Format/Info : Advanced Video Codec
Format profile : High@L4.1
Format settings, CABAC : Yes
Format settings, ReFrames : 5 frames
Codec ID : V_MPEG4/ISO/AVC
Duration : 1h 53mn
Bit rate : 5 356 Kbps
Width : 1 280 pixels
Height : 720 pixels
Display aspect ratio : 16:9
Frame rate mode : Constant
Frame rate : 23.976 fps
Color space : YUV
Chroma subsampling : 4:2:0
Bit depth : 8 bits
Scan type : Progressive
Bits/(Pixel*Frame) : 0.242
Stream size : 4.15 GiB (74%)
Writing library : x264 core 130 r2273 b3065e6
Encoding settings : cabac=1 / ref=5 / deblock=1:0:0 / analyse=0x3:0x113 / me=umh / subme=8 / psy=1 / psy_rd=1.00:0.00 / mixed_ref=1 / me_range=16 / chroma_me=1 / trellis=1 / 8x8dct=1 / cqm=0 / deadzone=21,11 / fast_pskip=1 / chroma_qp_offset=-2 / threads=12 / lookahead_threads=2 / sliced_threads=0 / nr=0 / decimate=1 / interlaced=0 / bluray_compat=0 / constrained_intra=0 / bframes=3 / b_pyramid=2 / b_adapt=2 / b_bias=0 / direct=3 / weightb=1 / open_gop=0 / weightp=2 / keyint=240 / keyint_min=24 / scenecut=40 / intra_refresh=0 / rc_lookahead=50 / rc=2pass / mbtree=1 / bitrate=5356 / ratetol=1.0 / qcomp=0.60 / qpmin=0 / qpmax=69 / qpstep=4 / cplxblur=20.0 / qblur=0.5 / ip_ratio=1.40 / aq=1:1.00
Language : English
Default : Yes
Forced : No
Audio #2
ID : 2
Format : AC-3
Format/Info : Audio Coding 3
Mode extension : CM (complete main)
Format settings, Endianness : Big
Codec ID : A_AC3
Duration : 1h 53mn
Bit rate mode : Constant
Bit rate : 192 Kbps
Channel(s) : 2 channels
Channel positions : Front: L R
Sampling rate : 48.0 KHz
Bit depth : 16 bits
Compression mode : Lossy
Stream size : 156 MiB (3%)
Title : Dohalov
Language : Russian
Default : Yes
Forced : No
Audio #3
ID : 3
Format : DTS
Format/Info : Digital Theater Systems
Mode : 16
Format settings, Endianness : Big
Codec ID : A_DTS
Duration : 1h 53mn
Bit rate mode : Constant
Bit rate : 1 509 Kbps
Channel(s) : 2 channels
Channel positions : Front: L R
Sampling rate : 48.0 KHz
Bit depth : 24 bits
Compression mode : Lossy
Stream size : 1.20 GiB (21%)
Language : English
Default : No
Forced : No
Menu
00:00:00.000 : en:00:00:00.000
00:08:52.824 : en:00:08:52.824
00:16:37.205 : en:00:16:37.205
00:26:41.683 : en:00:26:41.683
00:34:18.556 : en:00:34:18.556
00:46:42.800 : en:00:46:42.800
00:54:40.986 : en:00:54:40.986
01:05:01.314 : en:01:05:01.314
01:13:21.272 : en:01:13:21.272
01:20:15.644 : en:01:20:15.644
01:31:38.326 : en:01:31:38.326
01:48:37.094 : en:01:48:37.094

Скриншоты

Скачать

Скачать торрент!

Как скачивать? · Что такое торрент? · Рейтинг и ограничения

Сайт не распространяет и не хранит электронные версии произведений, а лишь предоставляет доступ к создаваемому пользователями каталогу ссылок на торрент-файлы, которые содержат только списки хеш-сумм

[Профиль] [ЛС]
Показать сообщения:    
Ответить на тему

Текущее время: Сегодня 14:47

Часовой пояс: GMT + 4



Вы не можете начинать темы
Вы не можете отвечать на сообщения
Вы не можете редактировать свои сообщения
Вы не можете удалять свои сообщения
Вы не можете голосовать в опросах
Вы не можете прикреплять файлы к сообщениям
Вы не можете скачивать файлы