Шафт / Shaft (Джон Синглтон / John Singleton) [2000, США, Германия, боевик, триллер, криминал, BDRip 720p] DVO (Премьер Видео) + 2х MVO + AVO (Живов) + 2х Ukr + Sub (Rus, Eng) + Original (Eng)

Ответить на тему
 
Автор Сообщение

user ®

Стаж: 7 лет 7 месяцев

Сообщений: 20008

Пост Пост: #1 от 21-Янв-2014 23:50

[Цитировать]

Шафт / Shaft«Есть вопросы?!» Страна: США, Германия
Жанр: боевик, триллер, криминал
Год выпуска: 2000
Продолжительность: 01:39:19
Перевод 1: Профессиональный (двухголосый закадровый) Премьер Видео
Перевод 2: Профессиональный (многоголосый закадровый) НТВ Беларусь
Перевод 3: Профессиональный (многоголосый закадровый)
Перевод 4: Авторский (одноголосый закадровый) Ю.Живов
Оригинальная аудиодорожка: английский
Cубтитры: русские, английские
Режиссер: Джон Синглтон / John Singleton
В ролях: Сэмюэл Л. Джексон, Ванесса Уильямс, Джеффри Райт, Кристиан Бэйл, Баста Раймс, Дэн Хедайя, Тони Коллетт, Ричард Раундтри, Рубен Сантьяго-Хадсон, Йозеф Зоммер
Описание: Все знают, что детектив Джон Шафт — самый крутой полицейский в городе. Некоторые полагают, что его жестокие методы «работы с уголовниками» не оправданы. Это не так.
Просто Джон один из тех людей в этом падшем городе, кто еще не забыл, что есть Справедливость! Вот за эту самую Справедливость Шафт и будет биться до конца.
Нести нелегкую службу Шафту помогает дядя — полицейский в отставке, у которого в молодости все бандиты «стояли на ушах» и которому сам король диско, Айзик Хейс посвятил свою песню.
На этот раз Шафту досталось сложное дело. Джону нужно, во что бы то ни стало, усадить за решетку безжалостного убийцу и найти единственного свидетеля, который ему в этом поможет.
Доп. информация:
"Премьер Видео Фильм" Текст читали: мужские роли - Всеволод Кузнецов, женские - Людмила Ильина
Рейтинг:

Знаете ли вы, что...

Фильм снят по мотивам романа Эрнеста Тайдимена «Шафт» (Shaft, 1970).
Сэмпл: http://multi-up.com/942707
Тип релиза: BDRip 720p (от EbP)
Контейнер: MKV
Видео: 1280 x 536 at 23.976 fps, MPEG-4 AVC, x264@L4.1, ~5 068 kbps avg
Аудио 1: Russian: 48 kHz, AC3, 2/0 (L,R) ch, ~192.00 kbps avg |Двухгоголосый закадровый, Премьер Видео|
Аудио 2: Russian: 48 kHz, AC3, 2/0 (L,R) ch, ~192.00 kbps avg |Многоголосый закадровый, Белтелерадиокомпания|
Аудио 3: Russian: 48 kHz, AC3, 3/2 (L,C,R,l,r) + LFE ch, ~384.00 kbps avg |Многоголосый закадровый|
Аудио 4: Russian: 48 kHz, AC3, 3/2 (L,C,R,l,r) + LFE ch, ~640.00 kbps avg |Одногоголосый закадровый, Ю.Живов|
Аудио 5: Ukrainian: 48 kHz, AC3, 2/0 (L,R) ch, ~192.00 kbps avg |Многоголосый закадровый#1|
Аудио 6: Ukrainian: 48 kHz, AC3, 2/0 (L,R) ch, ~192.00 kbps avg |Многоголосый закадровый#2|
Аудио 7: English: 48 kHz, AC3, 3/2 (L,C,R,l,r) + LFE ch, ~640.00 kbps avg
Формат субтитров: softsub (SRT)
Главы: есть

MediaInfo

Complete name : D:\Shaft.2000.720p.BluRay.x264-EbP.mkv
Format : Matroska
Format version : Version 2
File size : 5.31 GiB
Duration : 1h 39mn
Overall bit rate : 7 653 Kbps
Encoded date : UTC 2014-01-18 17:05:13
Writing application : mkvmerge v5.5.0 ('Healer') built on Apr 6 2012 21:43:24
Writing library : libebml v1.2.3 + libmatroska v1.3.0
Video
ID : 1
Format : AVC
Format/Info : Advanced Video Codec
Format profile : High@L4.1
Format settings, CABAC : Yes
Format settings, ReFrames : 9 frames
Codec ID : V_MPEG4/ISO/AVC
Duration : 1h 39mn
Bit rate : 5 068 Kbps
Width : 1 280 pixels
Height : 536 pixels
Display aspect ratio : 2.40:1
Frame rate mode : Constant
Frame rate : 23.976 fps
Color space : YUV
Chroma subsampling : 4:2:0
Bit depth : 8 bits
Scan type : Progressive
Bits/(Pixel*Frame) : 0.308
Stream size : 3.52 GiB (66%)
Title : Shaft.2000.720p.BluRay.x264-EbP
Writing library : x264 core 140 r2377 1ca7bb9
Encoding settings : cabac=1 / ref=9 / deblock=1:-3:-3 / analyse=0x3:0x113 / me=umh / subme=11 / psy=1 / psy_rd=1.05:0.00 / mixed_ref=1 / me_range=32 / chroma_me=1 / trellis=2 / 8x8dct=1 / cqm=0 / deadzone=21,11 / fast_pskip=0 / chroma_qp_offset=-2 / threads=48 / lookahead_threads=4 / sliced_threads=0 / nr=0 / decimate=0 / interlaced=0 / bluray_compat=0 / constrained_intra=0 / bframes=9 / b_pyramid=2 / b_adapt=2 / b_bias=0 / direct=3 / weightb=1 / open_gop=0 / weightp=2 / keyint=240 / keyint_min=23 / scenecut=40 / intra_refresh=0 / rc_lookahead=120 / rc=crf / mbtree=0 / crf=16.5 / qcomp=0.60 / qpmin=0 / qpmax=69 / qpstep=4 / vbv_maxrate=62500 / vbv_bufsize=78125 / crf_max=0.0 / nal_hrd=none / filler=0 / ip_ratio=1.40 / pb_ratio=1.30 / aq=2:0.70
Language : English
Default : Yes
Forced : No
Audio #1
ID : 2
Format : AC-3
Format/Info : Audio Coding 3
Mode extension : CM (complete main)
Format settings, Endianness : Big
Codec ID : A_AC3
Duration : 1h 39mn
Bit rate mode : Constant
Bit rate : 192 Kbps
Channel count : 2 channels
Channel positions : Front: L R
Sampling rate : 48.0 KHz
Bit depth : 16 bits
Compression mode : Lossy
Stream size : 136 MiB (3%)
Title : AC3 2.0 @ 192 kbps - Двухголосый закадровый, Премьер Видео
Language : Russian
Default : Yes
Forced : No
Audio #2
ID : 3
Format : AC-3
Format/Info : Audio Coding 3
Mode extension : CM (complete main)
Format settings, Endianness : Big
Codec ID : A_AC3
Duration : 1h 39mn
Bit rate mode : Constant
Bit rate : 192 Kbps
Channel count : 2 channels
Channel positions : Front: L R
Sampling rate : 48.0 KHz
Bit depth : 16 bits
Compression mode : Lossy
Stream size : 136 MiB (3%)
Title : AC3 2.0 @ 192 kbps - Многоголосый закадровый, НТВ Беларусь
Language : Russian
Default : No
Forced : No
Audio #3
ID : 4
Format : AC-3
Format/Info : Audio Coding 3
Mode extension : CM (complete main)
Format settings, Endianness : Big
Codec ID : A_AC3
Duration : 1h 39mn
Bit rate mode : Constant
Bit rate : 384 Kbps
Channel count : 6 channels
Channel positions : Front: L C R, Side: L R, LFE
Sampling rate : 48.0 KHz
Bit depth : 16 bits
Compression mode : Lossy
Stream size : 273 MiB (5%)
Title : AC3 5.1 @ 384 kbps - Многоголосый закадровый
Language : Russian
Default : No
Forced : No
Audio #4
ID : 5
Format : AC-3
Format/Info : Audio Coding 3
Mode extension : CM (complete main)
Format settings, Endianness : Big
Codec ID : A_AC3
Duration : 1h 39mn
Bit rate mode : Constant
Bit rate : 640 Kbps
Channel count : 6 channels
Channel positions : Front: L C R, Side: L R, LFE
Sampling rate : 48.0 KHz
Bit depth : 16 bits
Compression mode : Lossy
Stream size : 455 MiB (8%)
Title : AC3 5.1 @ 640 kbps - Одноголосый закадровый, Ю.Живов
Language : Russian
Default : No
Forced : No
Audio #5
ID : 6
Format : AC-3
Format/Info : Audio Coding 3
Mode extension : CM (complete main)
Format settings, Endianness : Big
Codec ID : A_AC3
Duration : 1h 39mn
Bit rate mode : Constant
Bit rate : 192 Kbps
Channel count : 2 channels
Channel positions : Front: L R
Sampling rate : 48.0 KHz
Bit depth : 16 bits
Compression mode : Lossy
Stream size : 136 MiB (3%)
Title : AC3 2.0 @ 192 kbps - Многоголосый закадровый №1
Language : Ukrainian
Default : No
Forced : No
Audio #6
ID : 7
Format : AC-3
Format/Info : Audio Coding 3
Mode extension : CM (complete main)
Format settings, Endianness : Big
Codec ID : A_AC3
Duration : 1h 39mn
Bit rate mode : Constant
Bit rate : 192 Kbps
Channel count : 2 channels
Channel positions : Front: L R
Sampling rate : 48.0 KHz
Bit depth : 16 bits
Compression mode : Lossy
Stream size : 136 MiB (3%)
Title : AC3 2.0 @ 192 kbps - Многоголосый закадровый №2
Language : Ukrainian
Default : No
Forced : No
Audio #7
ID : 8
Format : AC-3
Format/Info : Audio Coding 3
Mode extension : CM (complete main)
Format settings, Endianness : Big
Codec ID : A_AC3
Duration : 1h 39mn
Bit rate mode : Constant
Bit rate : 640 Kbps
Channel count : 6 channels
Channel positions : Front: L C R, Side: L R, LFE
Sampling rate : 48.0 KHz
Bit depth : 16 bits
Compression mode : Lossy
Stream size : 455 MiB (8%)
Title : AC3 5.1 @ 640 kbps
Language : English
Default : No
Forced : No
Text #1
ID : 9
Format : UTF-8
Codec ID : S_TEXT/UTF8
Codec ID/Info : UTF-8 Plain Text
Title : Russian
Language : Russian
Default : No
Forced : No
Text #2
ID : 10
Format : UTF-8
Codec ID : S_TEXT/UTF8
Codec ID/Info : UTF-8 Plain Text
Title : English
Language : English
Default : No
Forced : No
Text #3
ID : 11
Format : UTF-8
Codec ID : S_TEXT/UTF8
Codec ID/Info : UTF-8 Plain Text
Title : English (SDH)
Language : English
Default : No
Forced : No
Menu
00:00:00.000 : en:Crime Scene
00:11:30.231 : en:Out on Bail
00:13:33.146 : en:2 Years Later
00:22:00.110 : en:Old Business
00:27:03.747 : en:The L.D.
00:33:40.894 : en:$1,000,000 Bail
00:44:14.443 : en:Deadly Proposition
00:54:51.788 : en:Confronting Peoples
01:02:57.065 : en:Act of God
01:13:40.499 : en:Confession
01:22:05.295 : en:Shootout
01:29:31.241 : en:Justice?

Скриншоты

Скачать

Скачать торрент!

Как скачивать? · Что такое торрент? · Рейтинг и ограничения

Сайт не распространяет и не хранит электронные версии произведений, а лишь предоставляет доступ к создаваемому пользователями каталогу ссылок на торрент-файлы, которые содержат только списки хеш-сумм

[Профиль] [ЛС]
Показать сообщения:    
Ответить на тему

Текущее время: Сегодня 20:07

Часовой пояс: GMT + 4



Вы не можете начинать темы
Вы не можете отвечать на сообщения
Вы не можете редактировать свои сообщения
Вы не можете удалять свои сообщения
Вы не можете голосовать в опросах
Вы не можете прикреплять файлы к сообщениям
Вы не можете скачивать файлы