Небесные жёны луговых мари (Алексей Федорченко) [2012, драма, DVDRip-AVC] VO

Ответить на тему
 
Автор Сообщение

user ®

Стаж: 7 лет 7 месяцев

Сообщений: 20008

Пост Пост: #1 от 21-Янв-2014 23:50

[Цитировать]

Небесные жёны луговых мари
Жанр: драма
Год выпуска: 2012
Продолжительность: 01:41:49
Перевод: профессиональный (одноголосый закадровый)
Режиссёр: Алексей Федорченко
В ролях: Сергей Троегубов, Юлия Ауг, Яна Есипович, Дарья Екамасова, Яна Троянова, Ольга Дегтярева, Александр Ивашкевич, Василий Домрачев, Ольга Добрина, Яна Сексте
Описание: 23 новеллы о марийских женщинах. Каждая новелла — отдельная жанровая история продолжительностью от одной до десяти минут. Истории радостные и печальные, смешные и страшные. Это фильм-орнамент, фильм-календарь, рассказывающий о философии, традициях и сегодняшнем дне Марийского народа.
В фильме много эротики. Не случайно Федорченко называет свой новый фильм марийским Декамероном.
По книге Дениса Осокина.
Съёмки проходили в 2010—2011 годах в Свердловской области и республике Марий Эл во все четыре времени года. Половину денег на съёмки (один миллион долларов) режиссёру выделило Министерство культуры РФ, вторую половину — частные инвесторы. Роли в картине исполнили как профессиональные актёры, которым пришлось овладеть марийским языком, так и обычные марийцы, далёкие от кинематографа. Жанры новелл самые различные: драма, комедия, во всей ленте присутствует много эротики.
Картина участвовала в ноябре 2012 года в программе Римского кинофестиваля, а в июне 2013 года была представлена на «Кинотавре».
Сэмпл: http://multi-up.com/942769
Благодарю администратора cedr за подробные консультаци и помощь при подготовке релиза!
Доп. информация: Фильм снят на марийском языке.
Качество видео: DVDRip-AVC
Формат видео: MKV
Видео: DivX, 720х576@1024x576, 2439 кбит/с, 25 fps
Аудио: AC3, 448 кбит/с, 6 ch, 16 бит, 48 КГц

MediaInfo

Общее
Уникальный идентификатор : 203784920680293976738230897251165187067 (0x994F8C4FF8D3BA979CC3A4047098ABFB)
Полное имя : E:\Nebesnye.jony.lugovyh.mari_2012.DVDRipAVC.mkv
Формат : Matroska
Версия формата : Version 2
Размер файла : 2,05 Гбайт
Продолжительность : 1 ч. 41 м.
Общий поток : 2887 Кбит/сек
Дата кодирования : UTC 2014-01-21 18:55:19
Программа кодирования : mkvmerge v6.1.0 ('Old Devil') built on Mar 4 2013 09:10:42
Библиотека кодирования : libebml v1.3.0 + libmatroska v1.4.0
Видео
Идентификатор : 1
Формат : AVC
Формат/Информация : Advanced Video Codec
Профиль формата : High@L4.1
Параметр CABAC формата : Да
Параметр ReFrames формата : 4 кадра
Идентификатор кодека : V_MPEG4/ISO/AVC
Продолжительность : 1 ч. 41 м.
Битрейт : 2439 Кбит/сек
Ширина : 720 пикселей
Высота : 576 пикселей
Соотношение сторон : 16:9
Режим частоты кадров : Постоянный
Частота кадров : 25,000 кадров/сек
Стандарт вещания : PAL
Цветовое пространство : YUV
Субдискретизация насыщенности : 4:2:0
Битовая глубина : 8 бит
Тип развёртки : Прогрессивная
Бит/(Пиксели*Кадры) : 0.235
Размер потока : 1,69 Гбайт (82%)
Библиотека кодирования : x264 core 130 r2273 b3065e6
Настройки программы : cabac=1 / ref=4 / deblock=1:-2:-1 / analyse=0x3:0x113 / me=umh / subme=10 / psy=1 / psy_rd=1.00:0.20 / mixed_ref=1 / me_range=32 / chroma_me=1 / trellis=2 / 8x8dct=1 / cqm=0 / deadzone=21,11 / fast_pskip=0 / chroma_qp_offset=-3 / threads=12 / lookahead_threads=1 / sliced_threads=0 / nr=0 / decimate=0 / interlaced=0 / bluray_compat=0 / constrained_intra=0 / bframes=3 / b_pyramid=2 / b_adapt=2 / b_bias=0 / direct=3 / weightb=1 / open_gop=0 / weightp=2 / keyint=250 / keyint_min=25 / scenecut=40 / intra_refresh=0 / rc_lookahead=60 / rc=2pass / mbtree=1 / bitrate=2439 / ratetol=1.0 / qcomp=0.60 / qpmin=0 / qpmax=69 / qpstep=4 / cplxblur=20.0 / qblur=0.5 / vbv_maxrate=50000 / vbv_bufsize=50000 / nal_hrd=none / ip_ratio=1.40 / aq=1:1.00
Default : Да
Forced : Нет
Аудио
Идентификатор : 2
Формат : AC-3
Формат/Информация : Audio Coding 3
Расширение режима : CM (complete main)
Параметр Endianness формата : Big
Идентификатор кодека : A_AC3
Продолжительность : 1 ч. 41 м.
Вид битрейта : Постоянный
Битрейт : 448 Кбит/сек
Каналы : 6 каналов
Расположение каналов : Front: L C R, Side: L R, LFE
Частота : 48,0 КГц
Битовая глубина : 16 бит
Метод сжатия : С потерями
Размер потока : 326 Мбайт (16%)
Default : Да
Forced : Нет

Скриншот c названием фильма

Скриншоты

Скачать

Скачать торрент!

Как скачивать? · Что такое торрент? · Рейтинг и ограничения

Сайт не распространяет и не хранит электронные версии произведений, а лишь предоставляет доступ к создаваемому пользователями каталогу ссылок на торрент-файлы, которые содержат только списки хеш-сумм

[Профиль] [ЛС]
Показать сообщения:    
Ответить на тему

Текущее время: Сегодня 14:27

Часовой пояс: GMT + 4



Вы не можете начинать темы
Вы не можете отвечать на сообщения
Вы не можете редактировать свои сообщения
Вы не можете удалять свои сообщения
Вы не можете голосовать в опросах
Вы не можете прикреплять файлы к сообщениям
Вы не можете скачивать файлы