Старик и море / The Old Man and the Sea (Александр Петров) [1999, Анимация, живопись по стеклу, DVDRip-AVC]

Ответить на тему
 
Автор Сообщение

user ®

Стаж: 7 лет 7 месяцев

Сообщений: 20008

Пост Пост: #1 от 21-Янв-2014 20:40

[Цитировать]

Старик и море / The Old Man and the Sea
Страна: Канада, Россия, Япония
Жанр: Анимация, живопись по стеклу
Продолжительность: 00:21:43
Год выпуска: 1999
Перевод: Профессиональный (дублированный)
Русские субтитры: есть
Режиссёр: Александр Петров
Описание: История дружбы между маленьким деревенским мальчишкой и старым рыбаком. Сантьяго, сильный и гордый человек, он не может смириться с неумолимым течением времени, отнимающим физические силы. Уже много недель он возвращается без улова. Наконец он принимает решение — уйти за добычей далеко-далеко в море и без улова не возвращаться. Только так старый рыбак может вернуть себе уверенность и самоуважение. Рано утром он прощается со своим маленьким другом, с родным берегом, который видит, возможно, в последний раз, и растворяется в темноте морских вод. И все же удача приходит к рыбаку. В его снасти попадается гигантская рыба. Двое суток в море продолжается их поединок, но рыба не сдается и тянет Сантьяго все дальше и дальше в море. Но старый рыбак убедил себя в том, что упорство и сила духа — это то, что принесет ему победу…
Релиз:
Качество: DVDRip-AVC
Видео: 720x480 (4:3) @ 640x480, 23.976 fps, AVC, ~2037 Kbps, 0.246 bits/pixel
Аудио: Russian, 48.0 KHz, AC3, 2 ch, 192 Kbps - russian 2.0
Аудио 2: English, 48.0 KHz, AC3, 6 ch, 384 Kbps - english 5.1
Субтитры: Subtitles #1: English, UTF-8 - english
Subtitles #2: Russian, UTF-8 - russian
Subtitles #3: Ukrainian, UTF-8 - ukrainian

Подробные технические данные

GeneralUnique ID : 230097775673660991639881057762195755162 (0xAD1B3839B75C0C999F53FCD83A43509A)Complete name : D:\Tor_MY\Old man and sea.mkvFormat : MatroskaFormat version : Version 4 / Version 2File size : 414 MiBDuration : 21mn 43sOverall bit rate : 2 666 KbpsMovie name : Old man and sea.mkv by Nyc-2008Encoded date : UTC 2014-01-21 13:44:54Writing application : mkvmerge v6.7.0 ('Back to the Ground') 32bit built on Jan 8 2014 15:03:17Writing library : libebml v1.3.0 + libmatroska v1.4.1
VideoID : 1Format : AVCFormat/Info : Advanced Video CodecFormat profile : High@L4.0Format settings, CABAC : YesFormat settings, ReFrames : 16 framesCodec ID : V_MPEG4/ISO/AVCDuration : 21mn 43sBit rate : 2 037 KbpsWidth : 720 pixelsHeight : 480 pixelsDisplay aspect ratio : 4:3Frame rate mode : ConstantFrame rate : 23.976 fpsStandard : NTSCColor space : YUVChroma subsampling : 4:2:0Bit depth : 8 bitsScan type : ProgressiveBits/(Pixel*Frame) : 0.246Stream size : 317 MiB (76%)Writing library : x264 core 140 r2377kMod 1ca7bb9Encoding settings : cabac=1 / ref=16 / deblock=1:0:0 / analyse=0x3:0x113 / me=umh / subme=10 / psy=1 / fade_compensate=0.00 / psy_rd=1.00:0.00 / mixed_ref=1 / me_range=24 / chroma_me=1 / trellis=2 / 8x8dct=1 / cqm=0 / deadzone=21,11 / fast_pskip=0 / chroma_qp_offset=-2 / threads=6 / lookahead_threads=1 / sliced_threads=0 / nr=0 / decimate=1 / interlaced=0 / bluray_compat=0 / constrained_intra=0 / fgo=0 / bframes=16 / b_pyramid=2 / b_adapt=2 / b_bias=0 / direct=1 / weightb=1 / open_gop=0 / weightp=2 / keyint=250 / keyint_min=23 / scenecut=40 / intra_refresh=0 / rc=crf / mbtree=0 / crf=18.0000 / qcomp=0.60 / qpmin=0 / qpmax=69 / qpstep=4 / ip_ratio=1.40 / pb_ratio=1.30 / aq=1:1.00Default : YesForced : No
Audio #1ID : 2Format : AC-3Format/Info : Audio Coding 3Mode extension : CM (complete main)Format settings, Endianness : BigCodec ID : A_AC3Duration : 21mn 43sBit rate mode : ConstantBit rate : 192 KbpsChannel(s) : 2 channelsChannel positions : Front: L RSampling rate : 48.0 KHzBit depth : 16 bitsCompression mode : LossyStream size : 29.8 MiB (7%)Title : russian 2.0Language : RussianDefault : YesForced : No
Audio #2ID : 3Format : AC-3Format/Info : Audio Coding 3Mode extension : CM (complete main)Format settings, Endianness : BigCodec ID : A_AC3Duration : 21mn 43sBit rate mode : ConstantBit rate : 384 KbpsChannel(s) : 6 channelsChannel positions : Front: L C R, Side: L R, LFESampling rate : 48.0 KHzBit depth : 16 bitsCompression mode : LossyStream size : 59.7 MiB (14%)Title : english 5.1Language : EnglishDefault : NoForced : No
Text #1ID : 4Format : UTF-8Codec ID : S_TEXT/UTF8Codec ID/Info : UTF-8 Plain TextTitle : englishLanguage : EnglishDefault : NoForced : No
Text #2ID : 5Format : UTF-8Codec ID : S_TEXT/UTF8Codec ID/Info : UTF-8 Plain TextTitle : russianLanguage : RussianDefault : NoForced : No
Text #3ID : 6Format : UTF-8Codec ID : S_TEXT/UTF8Codec ID/Info : UTF-8 Plain TextTitle : ukrainianLanguage : UkrainianDefault : NoForced : No

Скриншоты

Скачать

Скачать торрент!

Как скачивать? · Что такое торрент? · Рейтинг и ограничения

Сайт не распространяет и не хранит электронные версии произведений, а лишь предоставляет доступ к создаваемому пользователями каталогу ссылок на торрент-файлы, которые содержат только списки хеш-сумм

[Профиль] [ЛС]
Показать сообщения:    
Ответить на тему

Текущее время: Сегодня 00:02

Часовой пояс: GMT + 4



Вы не можете начинать темы
Вы не можете отвечать на сообщения
Вы не можете редактировать свои сообщения
Вы не можете удалять свои сообщения
Вы не можете голосовать в опросах
Вы не можете прикреплять файлы к сообщениям
Вы не можете скачивать файлы