Шпион / The Spy / Seu-pa-i (И Сын Чжун / Lee Seung-joon) [2013, Южная Корея, детектив, комедия, HDRip] VO

Ответить на тему
 
Автор Сообщение

user ®

Стаж: 11 лет

Сообщений: 15151

Пост Пост: #1 от 21-Янв-2014 04:05

[Цитировать]

Шпион / The Spy / Seu-pa-i
Страна: Южная Корея
Жанр: детектив, комедия
Год выпуска: 2013
Продолжительность: 02:00:52-Перевод: Одноголосый закадровый den904 (КОЛОБОК)
Cубтитры: нет
Оригинальная аудиодорожка: нет--Режиссер: И Сын Чжун / Lee Seung-joon
В ролях: Сор Гён Гу, Ко Чхан Сок, Чон Ин Ги, Дэниэль Хенни, Мун Со Ри, Хан Е Ри-Описание: Чхор Су одни из лучших агентов в Корее, который может выполнить любую миссию. Однажды в Южной Корее происходит таинственный взрыв самолёта.
Чхор Су летит в Таиланд, чтобы найти и защитить человека по имени Пэк Сор Хо, которая знает разгадку к данному инциденту...- -Качество видео: HDRip (1080p)
Формат видео: AVI
Видео: XviD, 720x304 (2.37:1), 23.976 fps, 1530 kbps avg, 0.29 bit/pixel
Аудио: Русский MPEG layer 3, 192 kbps, 2 ch

Доп. информация

Перевод на русский: Ками
Рип и постер: Public Enemy (((

MediaInfo

Format : AVI
Format/Info : Audio Video Interleave
File size : 1.46 GiB
Duration : 2h 0mn
Overall bit rate : 1 732 Kbps
Writing application : VirtualDubMod 1.5.10.3 | www.virtualdub-fr.org || (build 2550/release)
Writing library : VirtualDubMod build 2550/release
Video
ID : 0
Format : MPEG-4 Visual
Format profile : Advanced Simple@L5
Format settings, BVOP : 1
Format settings, QPel : No
Format settings, GMC : No warppoints
Format settings, Matrix : Custom
Codec ID : XVID
Codec ID/Hint : XviD
Duration : 2h 0mn
Bit rate : 1 531 Kbps
Width : 720 pixels
Height : 304 pixels
Display aspect ratio : 2.35:1
Frame rate : 23.976 fps
Color space : YUV
Chroma subsampling : 4:2:0
Bit depth : 8 bits
Scan type : Progressive
Compression mode : Lossy
Bits/(Pixel*Frame) : 0.292
Stream size : 1.29 GiB (88%)
Writing library : XviD 73
Audio
ID : 1
Format : MPEG Audio
Format version : Version 1
Format profile : Layer 3
Codec ID : 55
Codec ID/Hint : MP3
Duration : 2h 0mn
Bit rate mode : Constant
Bit rate : 192 Kbps
Channel(s) : 2 channels
Sampling rate : 48.0 KHz
Compression mode : Lossy
Stream size : 166 MiB (11%)
Alignment : Aligned on interleaves
Interleave, duration : 42 ms (1.00 video frame)
Interleave, preload duration : 504 ms

Скриншот с названием фильма

Скриншоты

Скачать

Скачать торрент! Шпион / The Spy / Seu-pa-i (И Сын Чжун / Lee Seung-joon) [2013, Южная Корея, детектив, комедия, HDRip] VO

Как скачивать? · Что такое торрент? · Рейтинг и ограничения

Сайт не распространяет и не хранит электронные версии произведений, а лишь предоставляет доступ к создаваемому пользователями каталогу ссылок на торрент-файлы, которые содержат только списки хеш-сумм

[Профиль] [ЛС]
Показать сообщения:    
Ответить на тему

Текущее время: Сегодня 09:32

Часовой пояс: GMT + 4



Вы не можете начинать темы
Вы не можете отвечать на сообщения
Вы не можете редактировать свои сообщения
Вы не можете удалять свои сообщения
Вы не можете голосовать в опросах
Вы не можете прикреплять файлы к сообщениям
Вы не можете скачивать файлы