Небесные жёны луговых мари (Алексей Федорченко) [2012, драма, DVDRip] VO

Ответить на тему
 
Автор Сообщение

user ®

Стаж: 7 лет 7 месяцев

Сообщений: 20008

Пост Пост: #1 от 21-Янв-2014 04:05

[Цитировать]

Небесные жёны луговых мари
Жанр: драма
Год выпуска: 2012
Продолжительность: 01:41:46
Перевод: Профессиональный (одноголосый закадровый)
Режиссёр: Алексей Федорченко
В ролях: Сергей Троегубов, Юлия Ауг, Яна Есипович, Дарья Екамасова, Яна Троянова, Ольга Дегтярева, Александр Ивашкевич, Василий Домрачев, Ольга Добрина, Яна Сексте
Описание: жанровая история продолжительностью от одной до десяти минут. Истории радостные и печальные, смешные и страшные. Это фильм-орнамент, фильм-календарь, рассказывающий о философии, традициях и сегодняшнем дне Марийского народа.
В фильме много эротики. Не случайно Федорченко называет свой новый фильм марийским Декамероном.
По книге Дениса Осокина.
Съёмки проходили в 2010—2011 годах в Свердловской области и республике Марий Эл во все четыре времени года. Половину денег на съёмки (один миллион долларов) режиссёру выделило Министерство культуры РФ, вторую половину — частные инвесторы. Роли в картине исполнили как профессиональные актёры, которым пришлось овладеть марийским языком, так и обычные марийцы, далёкие от кинематографа. Жанры новелл самые различные: драма, комедия, во всей ленте присутствует много эротики.
Картина участвовала в ноябре 2012 года в программе Римского кинофестиваля, а в июне 2013 года была представлена на «Кинотавре».
Доп. информация: Фильм снят на марийском языке.
Сэмпл: http://multi-up.com/942435
Качество видео: DVDRip
Формат видео: AVI
Видео: DivX, 720х400, 1599 кбит/с, 25 fps
Аудио: AC3, 448 кбит/с, 6 ch, 16 бит, 48 КГц

MediaInfo

Общее
Полное имя : D:\Nebesnye.jony_2012.DVDRip.avi
Формат : AVI
Формат/Информация : Audio Video Interleave
Размер файла : 1,46 Гбайт
Продолжительность : 1 ч. 41 м.
Общий поток : 2056 Кбит/сек
Программа кодирования : VirtualDubMod 1.5.10.3 | www.virtualdub-fr.org || (build 2550/release)
Библиотека кодирования : VirtualDubMod build 2550/release
Видео
Идентификатор : 0
Формат : MPEG-4 Visual
Профиль формата : Advanced Simple@L5
Параметр BVOP формата : 1
Параметр QPel формата : Нет
Параметр GMC формата : Без точки перехода
Параметр матрицы формата : Default (MPEG)
Идентификатор кодека : DX50
Идентификатор кодека/Подсказка : DivX 5
Продолжительность : 1 ч. 41 м.
Битрейт : 1599 Кбит/сек
Ширина : 720 пикселей
Высота : 400 пикселей
Соотношение сторон : 16:9
Частота кадров : 25,000 кадров/сек
Цветовое пространство : YUV
Субдискретизация насыщенности : 4:2:0
Битовая глубина : 8 бит
Тип развёртки : Прогрессивная
Метод сжатия : С потерями
Бит/(Пиксели*Кадры) : 0.222
Размер потока : 1,14 Гбайт (78%)
Библиотека кодирования : XviD 1.2.1 (UTC 2008-12-04)
Аудио
Идентификатор : 1
Формат : AC-3
Формат/Информация : Audio Coding 3
Расширение режима : CM (complete main)
Параметр Endianness формата : Big
Идентификатор кодека : 2000
Продолжительность : 1 ч. 41 м.
Вид битрейта : Постоянный
Битрейт : 448 Кбит/сек
Каналы : 6 каналов
Расположение каналов : Front: L C R, Side: L R, LFE
Частота : 48,0 КГц
Битовая глубина : 16 бит
Метод сжатия : С потерями
Размер потока : 326 Мбайт (22%)
Выравнивание : Разделение по промежуткам
Продолжительность промежутка : 40 мс. (1,00 видеокадр)
Время предзагрузки промежутка : 500 мс.

Скриншот c названием фильма

Скриншоты

Скачать

Скачать торрент!

Как скачивать? · Что такое торрент? · Рейтинг и ограничения

Сайт не распространяет и не хранит электронные версии произведений, а лишь предоставляет доступ к создаваемому пользователями каталогу ссылок на торрент-файлы, которые содержат только списки хеш-сумм

[Профиль] [ЛС]
Показать сообщения:    
Ответить на тему

Текущее время: Сегодня 04:22

Часовой пояс: GMT + 4



Вы не можете начинать темы
Вы не можете отвечать на сообщения
Вы не можете редактировать свои сообщения
Вы не можете удалять свои сообщения
Вы не можете голосовать в опросах
Вы не можете прикреплять файлы к сообщениям
Вы не можете скачивать файлы