Фантом / The Phantom (Саймон Уинсер / Simon Wincer) [1996, США, Боевик, приключения, мистика, BDRemux 1080p] MVO + DVO (Премьер Видео) + AVO (Гаврилов) + Sub Eng + Original Eng

Ответить на тему
 
Автор Сообщение

user ®

Стаж: 7 лет 7 месяцев

Сообщений: 20008

Пост Пост: #1 от 20-Янв-2014 00:45

[Цитировать]

Фантом / The Phantom
Страна: США
Студия: Paramount Pictures
Жанр: Боевик, приключения, мистика
Год выпуска: 1996
Продолжительность: 01:40:18
Перевод 1: Профессиональный (многоголосый закадровый)
Перевод 2: Профессиональный (двухголосый закадровый) Премьер Видео
Перевод 3: Авторский (одноголосый закадровый) Гаврилов
Оригинальная аудиодорожка: Английский
Cубтитры: английские
Режиссер: Саймон Уинсер / Simon Wincer
В ролях: Билли Зейн, Кэтрин Зета-Джонс, Кристи Суонсон, Трит Уильямс, Джеймс Ремар, Кэри-Хироюки Тагава, Билл Смитрович, Кэйси Семашко, Дэвид Прувал, Джозеф Раньо
Описание: В старинной легенде говорится о магических черепах Туганды, дающих разрушительную силу тому, кто завладеет ими. Хранитель тайны, благородный «герой в маске» Кид Уокер в исполнении Билли Зэйна противостоит злодею Дрэксу, одержимому идеей безграничной власти над человечеством. Фантому предстоит справиться с гангстерами и пиратами, обрести любовь красавицы Дайан и спасти мир...
Сэмпл: http://yadi.sk/d/QyBNyb-0GBv9U
Тип релиза: BDRemux 1080p
Контейнер: MKV
Видео: MPEG4 - AVC , 1920x1080, 23,976fps , 16:9 , 25.8 Mbps
Аудио 1: Russian AC3 Dolby Digital, 48 kHz, 5.1 ch, 384 kbps avg
Аудио 2: Russian AC3 Dolby Digital, 48 kHz, 2.0 ch, 192 kbps avg
Аудио 3: Russian AC3 Dolby Digital, 48 kHz, 2.0 ch, 192 kbps avg
Аудио 4: English / DTS-HD Master Audio / 7.1 / 48 kHz / 2464 kbps / 24-bit (DTS Core: 5.1 / 48 kHz / 1509 kbps / 24-bit)
Формат субтитров: softsub (SRT)

MediaInfo

Формат : Matroska
Версия формата : Version 4 / Version 2
Размер файла : 20,7 Гбайт
Продолжительность : 1 ч. 40 м.
Режим общего битрейта : Переменный
Общий поток : 29,6 Мбит/сек
Название фильма : GregSam
Дата кодирования : UTC 2014-01-16 15:15:07
Программа кодирования : mkvmerge v6.7.0 ('Back to the Ground') 32bit built on Jan 8 2014 15:03:17
Библиотека кодирования : libebml v1.3.0 + libmatroska v1.4.1
Видео
Идентификатор : 1
Формат : AVC
Формат/Информация : Advanced Video Codec
Профиль формата : High@L4.1
Параметр CABAC формата : Да
Параметр ReFrames формата : 4 кадра
Идентификатор кодека : V_MPEG4/ISO/AVC
Продолжительность : 1 ч. 40 м.
Вид битрейта : Переменный
Максимальный битрейт : 38,0 Мбит/сек
Ширина : 1920 пикселей
Высота : 1080 пикселей
Соотношение сторон : 16:9
Режим частоты кадров : Постоянный
Частота кадров : 23,976 кадра/сек
Цветовое пространство : YUV
Субдискретизация насыщенности : 4:2:0
Битовая глубина : 8 бит
Тип развёртки : Прогрессивная
Default : Да
Forced : Нет
Основные цвета : BT.709
Характеристики трансфера : BT.709
Коэффициенты матрицы : BT.709
Аудио #1
Идентификатор : 2
Формат : AC-3
Формат/Информация : Audio Coding 3
Расширение режима : CM (complete main)
Параметр Endianness формата : Big
Идентификатор кодека : A_AC3
Продолжительность : 1 ч. 40 м.
Вид битрейта : Постоянный
Битрейт : 384 Кбит/сек
Каналы : 6 каналов
Расположение каналов : Front: L C R, Side: L R, LFE
Частота : 48,0 КГц
Битовая глубина : 16 бит
Метод сжатия : С потерями
Размер потока : 275 Мбайт (1%)
Заголовок : MVO
Язык : Russian
Default : Да
Forced : Нет
Аудио #2
Идентификатор : 3
Формат : AC-3
Формат/Информация : Audio Coding 3
Расширение режима : CM (complete main)
Параметр Endianness формата : Big
Идентификатор кодека : A_AC3
Продолжительность : 1 ч. 40 м.
Вид битрейта : Постоянный
Битрейт : 192 Кбит/сек
Каналы : 2 канала
Расположение каналов : Front: L R
Частота : 48,0 КГц
Битовая глубина : 16 бит
Метод сжатия : С потерями
Размер потока : 138 Мбайт (1%)
Заголовок : PREMIER
Язык : Russian
Default : Нет
Forced : Нет
Аудио #3
Идентификатор : 4
Формат : AC-3
Формат/Информация : Audio Coding 3
Расширение режима : CM (complete main)
Параметр Endianness формата : Big
Идентификатор кодека : A_AC3
Продолжительность : 1 ч. 40 м.
Вид битрейта : Постоянный
Битрейт : 192 Кбит/сек
Каналы : 2 канала
Расположение каналов : Front: L R
Частота : 48,0 КГц
Битовая глубина : 16 бит
Метод сжатия : С потерями
Размер потока : 138 Мбайт (1%)
Заголовок : GAVRILOV
Язык : Russian
Default : Нет
Forced : Нет
Аудио #4
Идентификатор : 5
Формат : DTS
Формат/Информация : Digital Theater Systems
Профиль формата : MA / Core
Режим : 16
Параметр Endianness формата : Big
Идентификатор кодека : A_DTS
Продолжительность : 1 ч. 40 м.
Вид битрейта : Переменный
Битрейт : Неизвестно / 1509 Кбит/сек
Каналы : 8 каналов / 6 каналов
Расположение каналов : Front: L C R, Side: L R, Back: L R, LFE / Front: L C R, Side: L R, LFE
Частота : 48,0 КГц
Битовая глубина : 24 бит
Метод сжатия : Без потерь / Lossy
Язык : English
Default : Нет
Forced : Нет
Текст
Идентификатор : 6
Формат : UTF-8
Идентификатор кодека : S_TEXT/UTF8
Идентификатор кодека/Информация : UTF-8 Plain Text
Язык : English
Default : Нет
Forced : Нет
Меню
00:00:00.000 : en:Chapter 1
00:01:29.464 : en:Chapter 2
00:08:25.171 : en:Chapter 3
00:14:42.631 : en:Chapter 4
00:17:31.175 : en:Chapter 5
00:23:36.957 : en:Chapter 6
00:29:29.642 : en:Chapter 7
00:36:07.123 : en:Chapter 8
00:41:55.095 : en:Chapter 9
00:45:34.815 : en:Chapter 10
00:48:40.584 : en:Chapter 11
00:51:53.151 : en:Chapter 12
00:55:06.011 : en:Chapter 13
00:58:25.126 : en:Chapter 14
01:10:15.085 : en:Chapter 15
01:13:35.536 : en:Chapter 16
01:23:52.360 : en:Chapter 17
01:29:05.590 : en:Chapter 18
01:31:19.348 : en:Chapter 19
01:33:42.241 : en:Chapter 20
01:40:17.845 : en:Chapter 21

Скриншоты

Скорость не большая , набираемся терпения !
Скачать

Скачать торрент!

Как скачивать? · Что такое торрент? · Рейтинг и ограничения

Сайт не распространяет и не хранит электронные версии произведений, а лишь предоставляет доступ к создаваемому пользователями каталогу ссылок на торрент-файлы, которые содержат только списки хеш-сумм

[Профиль] [ЛС]
Показать сообщения:    
Ответить на тему

Текущее время: Сегодня 00:23

Часовой пояс: GMT + 4



Вы не можете начинать темы
Вы не можете отвечать на сообщения
Вы не можете редактировать свои сообщения
Вы не можете удалять свои сообщения
Вы не можете голосовать в опросах
Вы не можете прикреплять файлы к сообщениям
Вы не можете скачивать файлы