Психоз 3 / Психо III / Psycho III (Энтони Перкинс / Anthony Perkins) [1986, США, Ужасы, триллер, мистика, BDRip 720p] VO + Sub Eng + Original Eng

Ответить на тему
 
Автор Сообщение

user ®

Стаж: 7 лет 7 месяцев

Сообщений: 20008

Пост Пост: #1 от 20-Янв-2014 00:45

[Цитировать]

Психоз 3 / Психо III / Psycho III- Страна: США
Студия: Universal Pictures
Жанр: Ужасы, триллер, мистика
Год выпуска: 1986
Продолжительность: 01:32:50-Перевод: Одноголосый закадровый
Cубтитры: английские
Оригинальная аудиодорожка: английский-Режиссер: Энтони Перкинс / Anthony Perkins-В ролях: Энтони Перкинс, Диана Скаруид, Джефф Фэйи, Роберта Максвелл, Хью Гиллин, Ли Гарлингтон, Роберт Алан Браун, Гари Байер, Джульет Камминс, Стив Гуевара, Донован Скотт-Описание: Несчастного Нормана снова посещает его покойная матушка. А в это время в мотель как назло нагрянули постояльцы. Перкинс настолько свыкся с ролью маменькиного сынка Нормана Бэйтса, что решил снимать теперь сам. Опять науськиваемый "мамашей", он "мочит" молодежь, а в конце забивает лопатой и претендентку на место мамаши, оказавшуюся родственницей. Самое удивительное, что полиция никак не хочет каждый раз верить, что он на такое способен, а вечно подозревает других.- -Релиз от: -Тип релиза: BDRip 720p
Контейнер: MKV
Видео: MPEG-4 AVC, 7650 Кбит/с, 1280x694, 23.976 кадр/с
Аудио: 48 kHz, AC3 Dolby Digital, 2/0 (L,R) ch, ~192 kbps (Rus)
Аудио 2: 48 kHz, AC3 Dolby Digital, 3/2 (L,C,R,l,r) + LFE ch, ~448 kbps |Original|

MediaInfo

x264 [info]: frame I:794 Avg QP:17.81 size:112821
x264 [info]: frame P:22177 Avg QP:19.06 size: 60974
x264 [info]: frame B:110564 Avg QP:21.38 size: 35091
Format : Matroska
Format version : Version 4 / Version 2
File size : 5.37 GiB
Duration : 1h 32mn
Overall bit rate : 8 285 Kbps
Movie name : -=MediaClub - Odessit=-
Encoded date : UTC 2013-12-20 12:31:14
Writing application : mkvmerge v6.1.0 ('Old Devil') built on Mar 4 2013 09:10:42
Writing library : libebml v1.3.0 + libmatroska v1.4.0
Video
ID : 1
Format : AVC
Format/Info : Advanced Video Codec
Format profile : High@L4.1
Format settings, CABAC : Yes
Format settings, ReFrames : 9 frames
Codec ID : V_MPEG4/ISO/AVC
Duration : 1h 32mn
Bit rate : 7 650 Kbps
Width : 1 280 pixels
Height : 694 pixels
Display aspect ratio : 16:9
Frame rate : 23.976 fps
Color space : YUV
Chroma subsampling : 4:2:0
Bit depth : 8 bits
Scan type : Progressive
Bits/(Pixel*Frame) : 0.359
Stream size : 4.85 GiB (90%)
Writing library : x264 core 130 r2273 b3065e6
Encoding settings : cabac=1 / ref=9 / deblock=1:-3:-3 / analyse=0x3:0x133 / me=umh / subme=11 / psy=1 / psy_rd=1.00:0.20 / mixed_ref=1 / me_range=48 / chroma_me=1 / trellis=2 / 8x8dct=1 / cqm=0 / deadzone=21,11 / fast_pskip=0 / chroma_qp_offset=-3 / threads=6 / lookahead_threads=1 / sliced_threads=0 / nr=0 / decimate=0 / interlaced=0 / bluray_compat=0 / constrained_intra=0 / bframes=10 / b_pyramid=2 / b_adapt=2 / b_bias=0 / direct=3 / weightb=1 / open_gop=0 / weightp=2 / keyint=240 / keyint_min=23 / scenecut=40 / intra_refresh=0 / rc=2pass / mbtree=0 / bitrate=7650 / ratetol=1.0 / qcomp=0.60 / qpmin=0 / qpmax=69 / qpstep=4 / cplxblur=20.0 / qblur=0.5 / ip_ratio=1.40 / pb_ratio=1.30 / aq=1:1.00
Language : English
Audio #1
ID : 2
Format : AC-3
Format/Info : Audio Coding 3
Mode extension : CM (complete main)
Codec ID : A_AC3
Duration : 1h 32mn
Bit rate mode : Constant
Bit rate : 192 Kbps
Channel(s) : 2 channels
Channel positions : Front: L R
Sampling rate : 48.0 KHz
Bit depth : 16 bits
Compression mode : Lossy
Stream size : 127 MiB (2%)
Title : Любительский одноголосый
Language : Russian
Audio #2
ID : 3
Format : AC-3
Format/Info : Audio Coding 3
Mode extension : CM (complete main)
Codec ID : A_AC3
Duration : 1h 32mn
Bit rate mode : Constant
Bit rate : 448 Kbps
Channel(s) : 6 channels
Channel positions : Front: L C R, Side: L R, LFE
Sampling rate : 48.0 KHz
Bit depth : 16 bits
Compression mode : Lossy
Stream size : 297 MiB (5%)
Language : English
Text
ID : 4
Format : UTF-8
Codec ID : S_TEXT/UTF8
Codec ID/Info : UTF-8 Plain Text
Language : English
Menu
00:00:00.000 : :Chapter 01
00:09:18.558 : :Chapter 02
00:16:55.639 : :Chapter 03
00:25:28.151 : :Chapter 04
00:32:33.952 : :Chapter 05
00:39:30.993 : :Chapter 06
00:46:30.788 : :Chapter 07
00:53:01.178 : :Chapter 08
01:00:27.248 : :Chapter 09
01:06:41.998 : :Chapter 10
01:14:11.447 : :Chapter 11
01:22:37.577 : :Chapter 12

Скриншоты

Скачать

Скачать торрент!

Как скачивать? · Что такое торрент? · Рейтинг и ограничения

Сайт не распространяет и не хранит электронные версии произведений, а лишь предоставляет доступ к создаваемому пользователями каталогу ссылок на торрент-файлы, которые содержат только списки хеш-сумм

[Профиль] [ЛС]
Показать сообщения:    
Ответить на тему

Текущее время: Сегодня 06:03

Часовой пояс: GMT + 4



Вы не можете начинать темы
Вы не можете отвечать на сообщения
Вы не можете редактировать свои сообщения
Вы не можете удалять свои сообщения
Вы не можете голосовать в опросах
Вы не можете прикреплять файлы к сообщениям
Вы не можете скачивать файлы