Ничего себе поездочка / Joy Ride (Джон Дал / John Dahl) [2001, США, роадмуви, триллер, BDRemux 1080p] Dub (Нева фильм) + 3x MVO (Позитив мультимедиа, LDV, РТР) + Sub Rus, Eng + Original Eng + 3x Com

Ответить на тему
 
Автор Сообщение

user ®

Стаж: 7 лет 7 месяцев

Сообщений: 20008

Пост Пост: #1 от 20-Янв-2014 00:45

[Цитировать]

Ничего себе поездочка / Joy Ride- -Страна: США
Жанр: роадмуви, триллер
Год выпуска: 2001
Продолжительность: 01:37:07-Перевод 1: Профессиональный (дублированный) Нева фильм
Перевод 2: Профессиональный (многоголосый закадровый) Позитив мультимедиа
Перевод 3: Профессиональный (многоголосый закадровый) LDV
Перевод 4: Профессиональный (многоголосый закадровый) РТР
Cубтитры: русские, английские
Оригинальная аудиодорожка: английский-Режиссер: Джон Дал / John Dahl
Сценарий: Клэй Тэрвер, Джей Джей Абрамс
Продюсер: Джей Джей Абрамс, Крис Мур, Джеффри Даунер, ...
Оператор: Джеф Джёр
Композитор: Марко Белтрами
Художник: Роберт Пирсон, Майкл Риззо, Терри Дресбах, ...
Монтаж: Эрик Л. Бисон, Скотт Честнат, Тодд Е. Миллер, ...
В ролях: Стив Зан, Пол Уокер, Лили Собески, Джессика Боуман, Стюарт Стоун, Бейзил Уоллес, Брайан Лекнер, Мэри Уиклифф, МакКензи Саттертвейт, Делл Йонт-Описание: Темная, пустынная лента шоссе змеей протянулась по безлюдному ландшафту средней Америки. Эта дорога живет своей жизнью, по своим правилам и законам, и если ты осмелился совершить по ней путешествие, то неплохо бы эти законы выучить наизусть.
Герои фильма попадают в жуткую переделку, когда Фулер уговаривает младшего брата Льюиса установить в машине старый радиопередатчик.
Для него это лишь «клевая» антикварная диковинка, с помощью которой можно позволить себе небольшой розыгрыш. Теперь ребятам придется своей кровью расплачиваться за поступок, на который способен каждый из нас…- -Тип релиза: BDRemux 1080p
Контейнер: MKV-Видео: MPEG-4 AVC Video / 37201 kbps / 1080p / 23.976 fps / 16:9 / High Profile 4.1
Аудио 1: Дубляж Нева фильм AC3 448 kBit/s 48 kHz 5.1 DD
Аудио 2: MVO Позитив мультимедиа AC3 448 kBit/s 48 kHz 5.1 DD
Аудио 3: MVO LDV AC3 384 kBit/s 48 kHz 5.1 DD
Аудио 4: MVO PTP AC3 192 kBit/s 48 kHz 2.0 DD
Аудио 5: English / DTS-HD Master Audio / 5.1 / 48 kHz / 4252 kbps / 24-bit (DTS Core: 5.1 / 48 kHz / 1509 kbps / 24-bit)
Аудио 6: Commentaries by Director John Dahl AC3 256 kBit/s 48 kHz 2.0 DD
Аудио 7: Commentaries by Writers J.J. Abrams and Clay Tarver AC3 256 kBit/s 48 kHz 2.0 DD
Аудио 8: Commentaries by Actors Steve Zahn and Leelee Sobieski AC3 256 kBit/s 48 kHz 2.0 DD
Формат субтитров: softsub (SRT)

MediaInfo

General
Unique ID : 202298704661734567346778777690198302152 (0x983150348D49A2799ACE0549D6CCDDC8)
Complete name : I:\__R__\Joy Ride.mkv
Format : Matroska
Format version : Version 4 / Version 2
File size : 29.4 GiB
Duration : 1h 37mn
Overall bit rate mode : Variable
Overall bit rate : 43.3 Mbps
Movie name : -=MediaClub-kaspr=-
Encoded date : UTC 2014-01-16 17:54:36
Writing application : mkvmerge v6.5.0 ('Isn't she lovely') built on Oct 20 2013 12:50:05
Writing library : libebml v1.3.0 + libmatroska v1.4.1
Video
ID : 1
Format : AVC
Format/Info : Advanced Video Codec
Format profile : High@L4.1
Format settings, CABAC : Yes
Format settings, ReFrames : 4 frames
Codec ID : V_MPEG4/ISO/AVC
Duration : 1h 37mn
Bit rate mode : Variable
Maximum bit rate : 39.2 Mbps
Width : 1 920 pixels
Height : 1 080 pixels
Display aspect ratio : 16:9
Frame rate mode : Constant
Frame rate : 23.976 fps
Color space : YUV
Chroma subsampling : 4:2:0
Bit depth : 8 bits
Scan type : Progressive
Title : MPEG-4 AVC Video / 37201 kbps / 1080p / 23.976 fps / 16:9 / High Profile 4.1
Language : English
Default : Yes
Forced : No
Audio #1
ID : 2
Format : AC-3
Format/Info : Audio Coding 3
Mode extension : CM (complete main)
Format settings, Endianness : Big
Codec ID : A_AC3
Duration : 1h 37mn
Bit rate mode : Constant
Bit rate : 448 Kbps
Channel count : 6 channels
Channel positions : Front: L C R, Side: L R, LFE
Sampling rate : 48.0 KHz
Bit depth : 16 bits
Compression mode : Lossy
Stream size : 311 MiB (1%)
Title : Дубляж Нева фильм AC3 448 kBit/s 48 kHz 5.1 DD
Language : Russian
Default : Yes
Forced : No
Audio #2
ID : 3
Format : AC-3
Format/Info : Audio Coding 3
Mode extension : CM (complete main)
Format settings, Endianness : Big
Codec ID : A_AC3
Duration : 1h 37mn
Bit rate mode : Constant
Bit rate : 448 Kbps
Channel count : 6 channels
Channel positions : Front: L C R, Side: L R, LFE
Sampling rate : 48.0 KHz
Bit depth : 16 bits
Compression mode : Lossy
Stream size : 311 MiB (1%)
Title : MVO1 AC3 448 kBit/s 48 kHz 5.1 DD
Language : Russian
Default : No
Forced : No
Audio #3
ID : 4
Format : AC-3
Format/Info : Audio Coding 3
Mode extension : CM (complete main)
Format settings, Endianness : Big
Codec ID : A_AC3
Duration : 1h 37mn
Bit rate mode : Constant
Bit rate : 384 Kbps
Channel count : 6 channels
Channel positions : Front: L C R, Side: L R, LFE
Sampling rate : 48.0 KHz
Bit depth : 16 bits
Compression mode : Lossy
Stream size : 267 MiB (1%)
Title : MVO2 LDV AC3 384 kBit/s 48 kHz 5.1 DD
Language : Russian
Default : No
Forced : No
Audio #4
ID : 5
Format : AC-3
Format/Info : Audio Coding 3
Mode extension : CM (complete main)
Format settings, Endianness : Big
Codec ID : A_AC3
Duration : 1h 37mn
Bit rate mode : Constant
Bit rate : 192 Kbps
Channel count : 2 channels
Channel positions : Front: L R
Sampling rate : 48.0 KHz
Bit depth : 16 bits
Compression mode : Lossy
Stream size : 133 MiB (0%)
Title : MVO PTP AC3 192 kBit/s 48 kHz 2.0 DD
Language : Russian
Default : No
Forced : No
Audio #5
ID : 6
Format : DTS
Format/Info : Digital Theater Systems
Format profile : MA / Core
Mode : 16
Format settings, Endianness : Big
Codec ID : A_DTS
Duration : 1h 37mn
Bit rate mode : Variable
Bit rate : Unknown / 1 509 Kbps
Channel count : 6 channels
Channel positions : Front: L C R, Side: L R, LFE
Sampling rate : 48.0 KHz
Bit depth : 24 bits
Compression mode : Lossless / Lossy
Title : English / DTS-HD Master Audio / 5.1 / 48 kHz / 4252 kbps / 24-bit (DTS Core: 5.1 / 48 kHz / 1509 kbps / 24-bit)
Language : English
Default : No
Forced : No
Audio #6
ID : 7
Format : AC-3
Format/Info : Audio Coding 3
Mode extension : CM (complete main)
Format settings, Endianness : Big
Codec ID : A_AC3
Duration : 1h 37mn
Bit rate mode : Constant
Bit rate : 224 Kbps
Channel count : 2 channels
Channel positions : Front: L R
Sampling rate : 48.0 KHz
Bit depth : 16 bits
Compression mode : Lossy
Stream size : 156 MiB (1%)
Title : Commentaries by Director John Dahl AC3 256 kBit/s 48 kHz 2.0 DD
Language : English
Default : No
Forced : No
Audio #7
ID : 8
Format : AC-3
Format/Info : Audio Coding 3
Mode extension : CM (complete main)
Format settings, Endianness : Big
Codec ID : A_AC3
Duration : 1h 37mn
Bit rate mode : Constant
Bit rate : 224 Kbps
Channel count : 2 channels
Channel positions : Front: L R
Sampling rate : 48.0 KHz
Bit depth : 16 bits
Compression mode : Lossy
Stream size : 156 MiB (1%)
Title : Commentaries by Writers J.J. Abrams and Clay Tarver AC3 256 kBit/s 48 kHz 2.0 DD
Language : English
Default : No
Forced : No
Audio #8
ID : 9
Format : AC-3
Format/Info : Audio Coding 3
Mode extension : CM (complete main)
Format settings, Endianness : Big
Codec ID : A_AC3
Duration : 1h 37mn
Bit rate mode : Constant
Bit rate : 224 Kbps
Channel count : 2 channels
Channel positions : Front: L R
Sampling rate : 48.0 KHz
Bit depth : 16 bits
Compression mode : Lossy
Stream size : 156 MiB (1%)
Title : Commentaries by Actors Steve Zahn and Leelee Sobieski AC3 256 kBit/s 48 kHz 2.0 DD
Language : English
Default : No
Forced : No
Text #1
ID : 10
Format : UTF-8
Codec ID : S_TEXT/UTF8
Codec ID/Info : UTF-8 Plain Text
Language : Russian
Default : No
Forced : No
Text #2
ID : 11
Format : UTF-8
Codec ID : S_TEXT/UTF8
Codec ID/Info : UTF-8 Plain Text
Language : Russian
Default : No
Forced : No
Text #3
ID : 12
Format : UTF-8
Codec ID : S_TEXT/UTF8
Codec ID/Info : UTF-8 Plain Text
Language : English
Default : No
Forced : No
Menu
00:00:00.000 : en:Chapter 01
00:01:53.113 : en:Chapter 03
00:03:49.187 : en:Chapter 05
00:06:03.404 : en:Chapter 07
00:10:04.812 : en:Chapter 09
00:11:40.116 : en:Chapter 11
00:15:52.826 : en:Chapter 13
00:17:21.707 : en:Chapter 15
00:21:27.911 : en:Chapter 17
00:25:58.515 : en:Chapter 19
00:31:03.611 : en:Chapter 21
00:36:08.374 : en:Chapter 23
00:39:21.984 : en:Chapter 25
00:42:22.206 : en:Chapter 27
00:48:36.371 : en:Chapter 29
00:50:40.829 : en:Chapter 31
00:54:37.190 : en:Chapter 33
00:58:30.381 : en:Chapter 35
01:00:51.731 : en:Chapter 37
01:02:46.345 : en:Chapter 39
01:04:39.500 : en:Chapter 41
01:08:00.451 : en:Chapter 43
01:12:18.042 : en:Chapter 45
01:15:57.678 : en:Chapter 47
01:18:10.060 : en:Chapter 49
01:24:02.829 : en:Chapter 51
01:25:54.107 : en:Chapter 53
01:29:02.587 : en:Chapter 55
01:31:40.620 : en:Chapter 57
01:33:05.288 : en:Chapter 59
Скачать

Скачать торрент!

Как скачивать? · Что такое торрент? · Рейтинг и ограничения

Сайт не распространяет и не хранит электронные версии произведений, а лишь предоставляет доступ к создаваемому пользователями каталогу ссылок на торрент-файлы, которые содержат только списки хеш-сумм

[Профиль] [ЛС]
Показать сообщения:    
Ответить на тему

Текущее время: Сегодня 19:42

Часовой пояс: GMT + 4



Вы не можете начинать темы
Вы не можете отвечать на сообщения
Вы не можете редактировать свои сообщения
Вы не можете удалять свои сообщения
Вы не можете голосовать в опросах
Вы не можете прикреплять файлы к сообщениям
Вы не можете скачивать файлы