Третий лишний / Ted (Сет МакФарлейн / Seth MacFarlane) [2012, США, фэнтези, комедия, BDRip 1080p] [Unrated] 3х VO (Дасевич, Киреев, Черемисинов) + Original Eng + Sub Rus, Eng

Ответить на тему
 
Автор Сообщение

user ®

Стаж: 7 лет 7 месяцев

Сообщений: 20008

Пост Пост: #1 от 20-Янв-2014 00:45

[Цитировать]

Третий лишний / Ted / Unrated- Страна: США
Жанр: фэнтези, комедия
Год выпуска: 2012
Продолжительность: 01:52:15
Перевод:
Одноголосый закадровый А. Дасевич
Одноголосый закадровый А. Киреев
Одноголосый закадровый Е. Черемисинов
Cубтитры: русские, английские
Оригинальная аудиодорожка: английский-Режиссер: Сет МакФарлейн / Seth MacFarlane
В ролях: Марк Уолберг, Мила Кунис, Сет МакФарлейн, Джоэль МакХэйл, Джованни Рибизи, Патрик Варбертон, Мэтт Уолш, Джессика Барт, Аэдин Минкс, Билл Смитрович.
Описание: Джон влюблен в красавицу Лори, у него отличная работа и большие планы на будущее. Но в их отношения вмешивается третий, давний друг Джона — Тед. Он отрывается сутки напролет, предпочитает случайные связи и не желает терять друга. Но никто на самом деле не знает на что он способен, ведь Тед — большой плюшевый медведь.-Релиз: GIU
Тип релиза: BDRip 1080p
Контейнер: MKV | Sample
Видео: 1920x1040 (1.85:1), 23.976 fps, 13300 kbps avg
Аудио 1: 48 kHz, DTS, 24 bit, (L,C,R,l,r) + LFE ch, 1509.00 kbps avg (Rus)
Аудио 2: 48 kHz, DTS, 24 bit, (L,C,R,l,r) + LFE ch, 1509.00 kbps avg (Rus)
Аудио 3: 48 kHz, DTS, 24 bit, (L,C,R,l,r) + LFE ch, 1509.00 kbps avg (Rus)
Аудио 4: 48 kHz, DTS, 24 bit, (L,C,R,l,r) + LFE ch, 1509.00 kbps avg (Eng)

Доп. информация

  • Сохранены оригинальные чаптеры как на Blu-ray.
  • Unrated-версия фильма (длиннее театральной примерно на 6 минут). Новые/изменённые сцены (=> отсутствовавшие в переводе Гоблина) допереведены doclogan-ом и xamster-ом.
  • Озвучка выполнена в рамках сервиса "Озвучивание". Спонсоры: timur1965, sybir, qbot, ARTYq, GKillah, kuyantus, Marvin, daikan, Slimka, 8bitman, olsoda, Данил29, BRATher.

Скриншоты

Медиаинфо

Формат : Matroska
Версия формата : Version 4 / Version 2
Размер файла : 15,2 Гбайт
Продолжительность : 1 ч. 52 м.
Общий поток : 19,3 Мбит/сек
Дата кодирования : UTC 2014-01-19 10:26:18
Программа кодирования : mkvmerge v6.6.0 ('The Edge Of The In Between') built on Dec 1 2013 17:55:00
Библиотека кодирования : libebml v1.3.0 + libmatroska v1.4.1
Видео
Идентификатор : 1
Формат : AVC
Формат/Информация : Advanced Video Codec
Профиль формата : High@L4.1
Параметр CABAC формата : Да
Параметр ReFrames формата : 4 кадра
Идентификатор кодека : V_MPEG4/ISO/AVC
Продолжительность : 1 ч. 52 м.
Битрейт : 13,3 Мбит/сек
Ширина : 1920 пикселей
Высота : 1040 пикселей
Соотношение сторон : 1,85:1
Режим частоты кадров : Постоянный
Частота кадров : 23,976 кадра/сек
Цветовое пространство : YUV
Субдискретизация насыщенности : 4:2:0
Битовая глубина : 8 бит
Тип развёртки : Прогрессивная
Бит/(Пиксели*Кадры) : 0.278
Размер потока : 10,1 Гбайт (67%)
Заголовок : Ted Unrated 2012
Библиотека кодирования : x264 core 125 r2200 999b753
Настройки программы : cabac=1 / ref=4 / deblock=1:-3:-3 / analyse=0x3:0x113 / me=umh / subme=11 / psy=1 / psy_rd=2.00:1.00 / mixed_ref=1 / me_range=32 / chroma_me=1 / trellis=2 / 8x8dct=1 / cqm=0 / deadzone=21,11 / fast_pskip=1 / chroma_qp_offset=-4 / threads=12 / lookahead_threads=2 / sliced_threads=0 / nr=0 / decimate=1 / interlaced=0 / bluray_compat=0 / constrained_intra=0 / bframes=7 / b_pyramid=2 / b_adapt=2 / b_bias=0 / direct=1 / weightb=0 / open_gop=0 / weightp=2 / keyint=240 / keyint_min=23 / scenecut=40 / intra_refresh=0 / rc_lookahead=40 / rc=2pass / mbtree=1 / bitrate=13320 / ratetol=1.0 / qcomp=0.70 / qpmin=0 / qpmax=51 / qpstep=4 / cplxblur=20.0 / qblur=0.5 / ip_ratio=1.40 / aq=1:1.00
Язык : English
Default : Да
Forced : Нет
Аудио #1
Идентификатор : 2
Формат : DTS
Формат/Информация : Digital Theater Systems
Режим : 16
Параметр Endianness формата : Big
Идентификатор кодека : A_DTS
Продолжительность : 1 ч. 52 м.
Вид битрейта : Постоянный
Битрейт : 1509 Кбит/сек
Каналы : 6 каналов
Расположение каналов : Front: L C R, Side: L R, LFE
Частота : 48,0 КГц
Битовая глубина : 24 бит
Метод сжатия : С потерями
Размер потока : 1,18 Гбайт (8%)
Заголовок : DTS 1510 Kbps Russian Дасевич
Язык : Russian
Default : Да
Forced : Нет
Аудио #2
Идентификатор : 3
Формат : DTS
Формат/Информация : Digital Theater Systems
Режим : 16
Параметр Endianness формата : Big
Идентификатор кодека : A_DTS
Продолжительность : 1 ч. 52 м.
Вид битрейта : Постоянный
Битрейт : 1509 Кбит/сек
Каналы : 6 каналов
Расположение каналов : Front: L C R, Side: L R, LFE
Частота : 48,0 КГц
Битовая глубина : 24 бит
Метод сжатия : С потерями
Размер потока : 1,18 Гбайт (8%)
Заголовок : DTS 1510 Kbps Russian Киреев
Язык : Russian
Default : Нет
Forced : Нет
Аудио #3
Идентификатор : 4
Формат : DTS
Формат/Информация : Digital Theater Systems
Режим : 16
Параметр Endianness формата : Big
Идентификатор кодека : A_DTS
Продолжительность : 1 ч. 52 м.
Вид битрейта : Постоянный
Битрейт : 1509 Кбит/сек
Каналы : 6 каналов
Расположение каналов : Front: L C R, Side: L R, LFE
Частота : 48,0 КГц
Битовая глубина : 24 бит
Метод сжатия : С потерями
Размер потока : 1,18 Гбайт (8%)
Заголовок : DTS 1510 Kbps Russian Черемисинов
Язык : Russian
Default : Нет
Forced : Нет
Аудио #4
Идентификатор : 5
Формат : DTS
Формат/Информация : Digital Theater Systems
Режим : 16
Параметр Endianness формата : Big
Идентификатор кодека : A_DTS
Продолжительность : 1 ч. 52 м.
Вид битрейта : Постоянный
Битрейт : 1509 Кбит/сек
Каналы : 6 каналов
Расположение каналов : Front: L C R, Side: L R, LFE
Частота : 48,0 КГц
Битовая глубина : 24 бит
Метод сжатия : С потерями
Размер потока : 1,18 Гбайт (8%)
Заголовок : DTS 1510 Kbps English Original
Язык : English
Default : Нет
Forced : Нет
Текст #1
Идентификатор : 6
Формат : UTF-8
Идентификатор кодека : S_TEXT/UTF8
Идентификатор кодека/Информация : UTF-8 Plain Text
Заголовок : Russian Full Goblin
Язык : Russian
Default : Да
Forced : Нет
Текст #2
Идентификатор : 7
Формат : UTF-8
Идентификатор кодека : S_TEXT/UTF8
Идентификатор кодека/Информация : UTF-8 Plain Text
Заголовок : English Full
Язык : English
Default : Нет
Forced : Нет
Меню
00:00:00.000 : en:Chapter 00
00:04:15.255 : en:Chapter 01
00:11:35.069 : en:Chapter 02
00:17:18.204 : en:Chapter 03
00:21:47.514 : en:Chapter 04
00:28:31.376 : en:Chapter 05
00:34:01.331 : en:Chapter 06
00:37:43.553 : en:Chapter 07
00:44:59.155 : en:Chapter 08
00:52:13.171 : en:Chapter 09
00:57:34.826 : en:Chapter 10
01:03:45.280 : en:Chapter 11
01:08:43.244 : en:Chapter 12
01:13:21.522 : en:Chapter 13
01:18:08.892 : en:Chapter 14
01:22:39.496 : en:Chapter 15
01:29:17.101 : en:Chapter 16
01:37:26.465 : en:Chapter 17
01:41:08.687 : en:Chapter 18
01:46:46.608 : en:Chapter 19
Скачать

Скачать торрент!

Как скачивать? · Что такое торрент? · Рейтинг и ограничения

Сайт не распространяет и не хранит электронные версии произведений, а лишь предоставляет доступ к создаваемому пользователями каталогу ссылок на торрент-файлы, которые содержат только списки хеш-сумм

[Профиль] [ЛС]
Показать сообщения:    
Ответить на тему

Текущее время: Сегодня 02:22

Часовой пояс: GMT + 4



Вы не можете начинать темы
Вы не можете отвечать на сообщения
Вы не можете редактировать свои сообщения
Вы не можете удалять свои сообщения
Вы не можете голосовать в опросах
Вы не можете прикреплять файлы к сообщениям
Вы не можете скачивать файлы