Облачно, возможны осадки в виде фрикаделек / Cloudy with a Chance of Meatballs (Фил Лорд / Phil Lord, Крис Миллер / Chris Miller) [2009 г., мультфильм, фэнтези, комедия, BDRip-AVC] (Локализованный видеоряд) Dub + AVO (Живов) + Ukr + Eng + Com + Sub

Ответить на тему
 
Автор Сообщение

user ®

Стаж: 13 лет

Сообщений: 15041

Пост Пост: #1 от 19-Янв-2014 10:20

[Цитировать]

- P R E S E N T SОблачно, возможны осадки в виде фрикаделек / Cloudy with a Chance of Meatballs- Страна: США
Жанр: мультфильм, фэнтези, приключения, комедия, семейный
Продолжительность: 01:29:53
Год выпуска: 2009
Перевод 1: Профессиональный (полное дублирование)
Перевод 2: Авторский (одноголосый закадровый) Юрий Живов
Субтитры: русских нет-Режиссёр: Фил Лорд / Phil Lord, Крис Миллер / Chris Miller
Роли озвучивали: Билл Хейдер, Анна Фэрис, Джеймс Каан, Энди Сэмберг, Брюс Кэмпбелл, Мистер Ти, Бобби Дж. Томпсон, Бенджамин Брэтт, Нил Патрик Харрис, Эл Рокер, Лорен Грэм, Уилл Форте, Макс Ньювёрт, Питер Сирагуса, Анджела Шелтон...
Роли дублировали: Александр Пушной, Ксения Бржезовская, Михаил Шац, Иван Чабан, Татьяна Лазарева- | | -Описание: Главный герой мультфильма - странный ученый Флинт Локвуд, который всегда хотел изобрести что-то такое, что сделает его родной городок счастливым. И вот, у него получилось! Еды теперь хватает всем, и она просто падает с неба, создавая новые пейзажи вокруг: можно любоваться закатом с живописных холмов из фруктового желе. Но иногда вкусные осадки в виде фрикаделек могут превратиться в настоящий торнадо из аппетитных, но уже опасных спагетти! Гениальному ученому и его друзьям предстоит исправить положение дел в сытом городке...-Доп. информация: BDRip-AVC сделан с Blu-Ray диска Cloudy with a Chance of Meatballs (2009) Blu-ray CEE 1080p AVC DD5.1-EiMi (Локализованный видеоряд).
Перевод Юрия Живова осуществлен в марте 2012 г. силами форумов E180 и WIDESCREEN "Кино в Авторском переводе" по заказу: Некрасов, KOtt97, multmir, Slimka, carnivale, ZombX, Bilko, 48ronin.
-Сэмпл/Sample (31 MB, 1 минута)-Качество: BDRip-AVC
Формат: MKV
Видео: 1120x476 (2.353:1), 23,976 fps, ~2623 kbps avg, 0.205 bit/pixel
Аудио #1: Русский, AC3, 6 ch, 48 kHz, 448 kbps - Дубляж | BD CEE | Студия "НЕВАФИЛЬМ"
Аудио #2: Русский, AC3, 6 ch, 48 kHz, 448 kbps - AVO | Юрий Живов
Аудио #3: Украинский, AC3, 6 ch, 48 kHz, 448 kbps - Дубляж | BD CEE
Аудио #4: English, AC3, 6 ch, 48 kHz, 448 kbps - Original
Аудио #5: English, AC3, 2 ch, 48 kHz, 192 kbps - Commentary track with Actor Bill Hader and Writers/Directors Christopher Miller and Phil Lord.
Субтитры: English (Full, Commentary)
Навигация по главам: есть (16 не именованных глав)

MediaInfo / x264Log

x264Log

raw [info]: 1120x476p 1:1 @ 24000/1001 fps (cfr)x264 [info]: using SAR=1/1x264 [info]: using cpu capabilities: MMX2 SSE2Fast SSSE3 SSE4.2 AVX XOP FMA4 FMA3 LZCNT BMI1x264 [info]: profile High, level 4.1x264 [info]: frame I:1136 Avg QP:14.43 size: 78152 PSNR Mean Y:48.57 U:50.06 V:50.06 Avg:49.00 Global:48.60x264 [info]: frame P:32295 Avg QP:16.05 size: 27220 PSNR Mean Y:47.21 U:48.87 V:48.81 Avg:47.66 Global:47.05x264 [info]: frame B:95880 Avg QP:19.34 size: 8352 PSNR Mean Y:46.44 U:48.22 V:48.19 Avg:46.92 Global:46.31x264 [info]: consecutive B-frames: 3.7% 4.4% 9.5% 40.1% 10.3% 16.6% 3.3% 8.0% 3.4% 0.5% 0.3%x264 [info]: mb I I16..4: 5.3% 67.1% 27.6%x264 [info]: mb P I16..4: 1.5% 15.8% 3.0% P16..4: 24.9% 28.4% 12.4% 2.5% 0.3% skip:11.0%x264 [info]: mb B I16..4: 0.3% 2.4% 0.4% B16..8: 27.4% 18.4% 3.7% direct: 4.7% skip:42.8% L0:40.8% L1:43.5% BI:15.6%x264 [info]: 8x8 transform intra:76.5% inter:56.3%x264 [info]: coded y,uvDC,uvAC intra: 85.9% 93.1% 81.8% inter: 17.9% 20.3% 9.1%x264 [info]: i16 v,h,dc,p: 16% 12% 4% 69%x264 [info]: i8 v,h,dc,ddl,ddr,vr,hd,vl,hu: 10% 13% 8% 9% 11% 11% 12% 11% 15%x264 [info]: i4 v,h,dc,ddl,ddr,vr,hd,vl,hu: 12% 12% 6% 8% 15% 12% 13% 10% 12%x264 [info]: i8c dc,h,v,p: 36% 27% 17% 20%x264 [info]: Weighted P-Frames: Y:5.0% UV:4.1%x264 [info]: ref P L0: 51.1% 9.6% 16.2% 6.7% 4.6% 3.7% 2.9% 1.7% 1.5% 1.5% 0.3% 0.0%x264 [info]: ref B L0: 74.7% 11.1% 5.7% 2.8% 2.0% 1.5% 1.3% 0.6% 0.3%x264 [info]: ref B L1: 92.6% 7.4%x264 [info]: SSIM Mean Y:0.9895692 (19.817db)x264 [info]: PSNR Mean Y:46.650 U:48.400 V:48.361 Avg:47.126 Global:46.503 kb/s:2623.49encoded 129311 frames, 11.65 fps, 2623.49 kb/s
GeneralUnique ID : 226955444840913314108777710162313166509 (0xAABE075A97B78F4CA48283CCCA533EAD)Complete name : Cloudy.with.a.Chance.of.Meatballs.2009.Rus.BDRip-AVC.476p.dfcbit.mkvFormat : MatroskaFormat version : Version 2File size : 2.89 GiBDuration : 1h 29mnOverall bit rate : 4 610 KbpsEncoded date : UTC 2014-01-18 19:24:09Writing application : mkvmerge v4.0.0 ('The Stars were mine') built on Jun 6 2010 16:18:42Writing library : libebml v1.0.0 + libmatroska v1.0.0
VideoID : 1Format : AVCFormat/Info : Advanced Video CodecFormat profile : High@L4.1Format settings, CABAC : YesFormat settings, ReFrames : 10 framesCodec ID : V_MPEG4/ISO/AVCDuration : 1h 29mnBit rate : 2 623 KbpsWidth : 1 120 pixelsHeight : 476 pixelsDisplay aspect ratio : 2.35:1Frame rate mode : ConstantFrame rate : 23.976 fpsColor space : YUVChroma subsampling : 4:2:0Bit depth : 8 bitsScan type : ProgressiveBits/(Pixel*Frame) : 0.205Stream size : 1.65 GiB (55%)Title : NTSC, 1120x476 (2.353:1), BDRip-AVC 476p - tRuAVC & Multfilmy [DFCbit]Writing library : x264 core 140 r2377kMod 1ca7bb9Encoding settings : cabac=1 / ref=10 / deblock=1:-2:-1 / analyse=0x3:0x133 / me=umh / subme=11 / psy=1 / fade_compensate=0.00 / psy_rd=0.63:0.00 / mixed_ref=1 / me_range=32 / chroma_me=1 / trellis=2 / 8x8dct=1 / cqm=0 / deadzone=21,11 / fast_pskip=0 / chroma_qp_offset=-2 / threads=12 / lookahead_threads=3 / sliced_threads=0 / nr=0 / decimate=1 / interlaced=0 / bluray_compat=0 / constrained_intra=0 / fgo=0 / bframes=10 / b_pyramid=2 / b_adapt=2 / b_bias=0 / direct=1 / weightb=1 / open_gop=0 / weightp=2 / keyint=250 / keyint_min=23 / scenecut=40 / intra_refresh=0 / rc_lookahead=70 / rc=crf / mbtree=0 / crf=17.1900 / qcomp=0.81 / qpmin=0 / qpmax=69 / qpstep=4 / vbv_maxrate=50000 / vbv_bufsize=62500 / crf_max=0.0 / nal_hrd=none / filler=0 / ip_ratio=1.40 / pb_ratio=1.30 / aq=3:0.90Language : RussianDefault : YesForced : NoColor primaries : BT.709Transfer characteristics : BT.709Matrix coefficients : BT.709
Audio #1ID : 2Format : AC-3Format/Info : Audio Coding 3Mode extension : CM (complete main)Format settings, Endianness : BigCodec ID : A_AC3Duration : 1h 29mnBit rate mode : ConstantBit rate : 448 KbpsChannel(s) : 6 channelsChannel positions : Front: L C R, Side: L R, LFESampling rate : 48.0 KHzBit depth : 16 bitsCompression mode : LossyStream size : 288 MiB (10%)Title : AC3, 6 ch, 48 kHz, 448 kbps - Дубляж | BD CEE | Студия "НЕВАФИЛЬМ"Language : RussianDefault : YesForced : No
Audio #2ID : 3Format : AC-3Format/Info : Audio Coding 3Mode extension : CM (complete main)Format settings, Endianness : BigCodec ID : A_AC3Duration : 1h 29mnBit rate mode : ConstantBit rate : 448 KbpsChannel(s) : 6 channelsChannel positions : Front: L C R, Side: L R, LFESampling rate : 48.0 KHzBit depth : 16 bitsCompression mode : LossyStream size : 288 MiB (10%)Title : AC3, 6 ch, 48 kHz, 448 kbps - AVO | Юрий ЖивовLanguage : RussianDefault : NoForced : No
Audio #3ID : 4Format : AC-3Format/Info : Audio Coding 3Mode extension : CM (complete main)Format settings, Endianness : BigCodec ID : A_AC3Duration : 1h 29mnBit rate mode : ConstantBit rate : 448 KbpsChannel(s) : 6 channelsChannel positions : Front: L C R, Side: L R, LFESampling rate : 48.0 KHzBit depth : 16 bitsCompression mode : LossyStream size : 288 MiB (10%)Title : AC3, 6 ch, 48 kHz, 448 kbps - Дубляж | BD CEELanguage : UkrainianDefault : NoForced : No
Audio #4ID : 5Format : AC-3Format/Info : Audio Coding 3Mode extension : CM (complete main)Format settings, Endianness : BigCodec ID : A_AC3Duration : 1h 29mnBit rate mode : ConstantBit rate : 448 KbpsChannel(s) : 6 channelsChannel positions : Front: L C R, Side: L R, LFESampling rate : 48.0 KHzBit depth : 16 bitsCompression mode : LossyStream size : 288 MiB (10%)Title : AC3, 6 ch, 48 kHz, 448 kbps - OriginalLanguage : EnglishDefault : NoForced : No
Audio #5ID : 6Format : AC-3Format/Info : Audio Coding 3Format profile : Dolby DigitalMode extension : CM (complete main)Format settings, Endianness : BigCodec ID : A_AC3Duration : 1h 29mnBit rate mode : ConstantBit rate : 192 KbpsChannel(s) : 2 channelsChannel positions : Front: L RSampling rate : 48.0 KHzBit depth : 16 bitsCompression mode : LossyStream size : 123 MiB (4%)Title : AC3, 2 ch, 48 kHz, 192 kbps - Commentary track with Actor Bill Hader and Writers/Directors Christopher Miller and Phil LordLanguage : EnglishDefault : NoForced : No
Text #1ID : 7Format : UTF-8Codec ID : S_TEXT/UTF8Codec ID/Info : UTF-8 Plain TextTitle : SRT, FullLanguage : EnglishDefault : NoForced : No
Text #2ID : 8Format : UTF-8Codec ID : S_TEXT/UTF8Codec ID/Info : UTF-8 Plain TextTitle : SRT, CommentaryLanguage : EnglishDefault : NoForced : No
Menu00:00:00.000 : en:Chapter 100:04:47.621 : en:Chapter 200:08:56.578 : en:Chapter 300:14:33.164 : en:Chapter 400:20:30.229 : en:Chapter 500:24:25.589 : en:Chapter 600:30:43.175 : en:Chapter 700:36:29.604 : en:Chapter 800:42:50.109 : en:Chapter 900:46:36.794 : en:Chapter 1000:52:43.827 : en:Chapter 1100:55:07.429 : en:Chapter 1201:00:42.764 : en:Chapter 1301:05:43.398 : en:Chapter 1401:13:03.754 : en:Chapter 1501:17:45.369 : en:Chapter 16

Скриншоты

Скриншот с названием мультфильма (Локализация)
--BDRip-AVC


Source Blu-Ray

-Данный релиз не будет воспроизводиться на бытовых плеерах не поддерживающих MKV и H.264
Скачать

Скачать торрент! Облачно, возможны осадки в виде фрикаделек / Cloudy with a Chance of Meatballs (Фил Лорд / Phil Lord, Крис Миллер / Chris Miller) [2009 г., мультфильм, фэнтези, комедия, BDRip-AVC] (Локализованный видеоряд) Dub + AVO (Живов) + Ukr + Eng + Com + Sub

Как скачивать? · Что такое торрент? · Рейтинг и ограничения

Сайт не распространяет и не хранит электронные версии произведений, а лишь предоставляет доступ к создаваемому пользователями каталогу ссылок на торрент-файлы, которые содержат только списки хеш-сумм

[Профиль] [ЛС]
Показать сообщения:    
Ответить на тему

Текущее время: Сегодня 00:26

Часовой пояс: GMT + 4



Вы не можете начинать темы
Вы не можете отвечать на сообщения
Вы не можете редактировать свои сообщения
Вы не можете удалять свои сообщения
Вы не можете голосовать в опросах
Вы не можете прикреплять файлы к сообщениям
Вы не можете скачивать файлы