Страсть / Ishq (Индра Кумар / Indra Kumar) [1997, Индия, Боевик, драма, мелодрама, комедия, DVDRip] MVO (Формат AB)

Ответить на тему
 
Автор Сообщение

user ®

Стаж: 12 лет

Сообщений: 15092

Пост Пост: #1 от 19-Янв-2014 10:20

[Цитировать]

Страсть / Ishq
Страна: Индия
Жанр: Боевик, драма, мелодрама, комедия
Год выпуска: 1997
Продолжительность: 02:49:30
Перевод: Профессиональный (многоголосый закадровый) Формат AB
Cубтитры: нет
Режиссер: Индра Кумар / Indra Kumar
В ролях: Аамир Кхан, Аджай Девган, Джухи Чавла, Каджол, Далип Тахил, Джонни Левер, Мохан Джоши, Девен Верма, Тику Талсания, Дипак Ширке
Описание: Аджай — сын индийского олигарха. Раджа — нищий автомеханик. Мадху — дочь богатого бизнесмена. Каджол — девушка из бедных индийских слоев общества. Родители Аджая и Мадху мечтают пристроить своих детей в такие же богатые, как и они семьи. Да только судьба распорядилась по-другому.
Богач Аджай влюбился в босячку Каджол, а шикарная невеста Мадху вдруг обратила свой взор на бедного «принца» Раджу. Как только молодые люди заявили о своих планах родителям, так сразу же завертелся маховик ответной «реакции» отцов и матерей…
Сэмпл: http://multi-up.com/941693
Качество видео: DVDRip
Формат видео: AVI
Видео: XviD build 50, 688x352 (1.95:1), 23.976 fps, 1097 kbps avg
Аудио: MPEG Layer 3, 48 kHz, 2/0 (L,R) ch, 128.00 kbps avg

MediaInfo

General
Complete name : D:\Strast.1997.DVDRip-Dego.avi
Format : AVI
Format/Info : Audio Video Interleave
File size : 1.46 GiB
Duration : 2h 49mn
Overall bit rate : 1 235 Kbps
Writing application : VirtualDubMod 1.5.10.2 (build 2540/release)
Writing library : VirtualDubMod build 2540/release
Video
ID : 0
Format : MPEG-4 Visual
Format profile : AdvancedSimple@L5
Format settings, BVOP : Yes
Format settings, QPel : No
Format settings, GMC : No warppoints
Format settings, Matrix : Default (MPEG)
Codec ID : XVID
Codec ID/Hint : XviD
Duration : 2h 49mn
Bit rate : 1 097 Kbps
Width : 688 pixels
Height : 352 pixels
Display aspect ratio : 1.955
Frame rate : 23.976 fps
Resolution : 24 bits
Colorimetry : 4:2:0
Scan type : Progressive
Bits/(Pixel*Frame) : 0.189
Stream size : 1.30 GiB (89%)
Writing library : XviD 1.2.1 (UTC 2008-12-04)
Audio
ID : 1
Format : MPEG Audio
Format version : Version 1
Format profile : Layer 3
Codec ID : 55
Codec ID/Hint : MP3
Duration : 2h 49mn
Bit rate mode : Constant
Bit rate : 128 Kbps
Channel(s) : 2 channels
Sampling rate : 48.0 KHz
Resolution : 16 bits
Stream size : 155 MiB (10%)
Alignment : Aligned on interleaves
Interleave, duration : 42 ms (1.00 video frame)
Interleave, preload duration : 504 ms
Writing library : LAME3.98r
Encoding settings : -m s -V 4 -q 2 -lowpass 17 -b 128

Скриншоты

Скачать

Скачать торрент! Страсть / Ishq (Индра Кумар / Indra Kumar) [1997, Индия, Боевик, драма, мелодрама, комедия, DVDRip] MVO (Формат AB)

Как скачивать? · Что такое торрент? · Рейтинг и ограничения

Сайт не распространяет и не хранит электронные версии произведений, а лишь предоставляет доступ к создаваемому пользователями каталогу ссылок на торрент-файлы, которые содержат только списки хеш-сумм

[Профиль] [ЛС]
Показать сообщения:    
Ответить на тему

Текущее время: Сегодня 12:47

Часовой пояс: GMT + 4



Вы не можете начинать темы
Вы не можете отвечать на сообщения
Вы не можете редактировать свои сообщения
Вы не можете удалять свои сообщения
Вы не можете голосовать в опросах
Вы не можете прикреплять файлы к сообщениям
Вы не можете скачивать файлы