Рамая, ты вернёшься? / Ты придёшь? / Ramaiya Vastavaiya ( Shakti Sisodiya,Prabhudheva) [2013, Индия, Мелодрама, комедия, семейный, DVDRip] MVO

Ответить на тему
 
Автор Сообщение

user ®

Стаж: 12 лет

Сообщений: 15092

Пост Пост: #1 от 19-Янв-2014 10:20

[Цитировать]

Рамая, ты вернёшься? / Ramaiya Vastavaiya
Год выпуска: 2013
Страна: Индия
Жанр: мелодрама, комедия, семейный
Продолжительность: 02:26:50
Перевод: любительский многоголосый закадровый (студия STEPonee )

Русские субтитры: нет
Оригинальная дорожка: нет
Режиссёры: Шакти Сисодия (Shakti Sisodiya), Прабхудева (Prabhudheva).
В ролях:
  • Шрути Хасан (Shruti K. Haasan) - Слна
  • Гириш Кумар (Girish Kumar) - Рам
  • Рандхир Капур (Randhir Kapoor) - Отец Рама
  • Сону Суд (Sonu Sood) - Брат Соны
  • Пунам Диллон (Poonam Dhillon) - Мама Рама
  • Сатиш Шах (Satish Shah)
    Описание
    Рам , молодой, красивый и уверенный в себе индус, выросший в Австралии, завидный жених из семьи миллионеров, приезжает в Индию на свадьбу своей двоюродной сестры, где он знакомится с её лучшей подругой Соной (Шрути Хасан). Сона и Рам влюбляются друг в друга с первого взгляда, но эту любовь поджидают препятствия, причина которых кроется не только в том, что Рам вырос в большом городе в Австралии, а Сона родом из маленькой традиционной индийской деревушки, но и в том, что брат Соны и мать Рама не особо симпатизируют друг другу и не в восторге от этого союза. Поскольку Сона сирота, её брат единственный, кто принимает решение, можно ли его сестре встречаться с богатым красавцем из Австралии или нет…
    Сэмпл
    Роли озвучивали:
    • Наталья Скребнева
    • Натиа Макаридзе
    • Александр Калинин
    Перевод на русский язык: Ольга Платонова
    Качество:DVDRip (исходник неизвестен)
    Формат: AVI
    Видео: XviD, 720x304 (2,35:1), 23,976 к/с, 1186 кбит/с
    Аудио: AC3 2.0, 48 кГц, 224 кбит/с
    Подготовка релиза:
    • Натиа Макаридзе - монтаж и работа со звуком
    • Екатерина Проц - постер
    • Василий Харченко - тайминг

    Скриншот c названием фильма

    Скриншоты

    Mediainfo

    Формат : AVI
    Формат/Информация : Audio Video Interleave
    Размер файла : 1,46 Гбайт
    Продолжительность : 2 ч. 26 м.
    Общий поток : 1419 Кбит/сек
    Программа кодирования : VirtualDubModRus 1.5.10.2 (build 2542/release)
    Библиотека кодирования : VirtualDubMod build 2542/release
    Видео
    Идентификатор : 0
    Формат : MPEG-4 Visual
    Профиль формата : Advanced Simple@L5
    Параметр BVOP формата : 1
    Параметр QPel формата : Нет
    Параметр GMC формата : Без точки перехода
    Параметр матрицы формата : Default (H.263)
    Идентификатор кодека : XVID
    Идентификатор кодека/Подсказка : XviD
    Продолжительность : 2 ч. 26 м.
    Битрейт : 1186 Кбит/сек
    Ширина : 720 пикселей
    Высота : 304 пикселя
    Соотношение сторон : 2,35:1
    Частота кадров : 23,976 кадра/сек
    Цветовое пространство : YUV
    Субдискретизация насыщенности : 4:2:0
    Битовая глубина : 8 бит
    Тип развёртки : Прогрессивная
    Метод сжатия : С потерями
    Бит/(Пиксели*Кадры) : 0.226
    Размер потока : 1,22 Гбайт (84%)
    Библиотека кодирования : XviD 1.2.1 (UTC 2008-12-04)
    Аудио
    Идентификатор : 1
    Формат : AC-3
    Формат/Информация : Audio Coding 3
    Расширение режима : CM (complete main)
    Параметр Endianness формата : Big
    Идентификатор кодека : 2000
    Продолжительность : 2 ч. 26 м.
    Вид битрейта : Постоянный
    Битрейт : 224 Кбит/сек
    Каналы : 2 канала
    Расположение каналов : Front: L R
    Частота : 48,0 КГц
    Битовая глубина : 16 бит
    Метод сжатия : С потерями
    Размер потока : 235 Мбайт (16%)
    Выравнивание : Соединение по промежуткам
    Продолжительность промежутка : 42 мс. (1,00 видеокадр)
    Время предзагрузки промежутка : 512 мс.

    Все раздачи студии

    [url=http://***/forum/tracker.php?nm=steponee]Все разделы[/url]
    [url=http://***/forum/tracker.php?f=915&nm=steponee]Корейские сериалы[/url]
    [url=http://***/forum/tracker.php?f=1939&nm=steponee]Японские сериалы[/url]
    [url=http://***/forum/tracker.php?f=2412&nm=steponee]Прочие азиатские сериалы[/url]
    [url=http://***/forum/tracker.php?f=934&nm=steponee]Азиатские фильмы[/url]
Скачать

Скачать торрент! Рамая, ты вернёшься? / Ты придёшь? / Ramaiya Vastavaiya ( Shakti Sisodiya,Prabhudheva) [2013, Индия, Мелодрама, комедия, семейный, DVDRip] MVO

Как скачивать? · Что такое торрент? · Рейтинг и ограничения

Сайт не распространяет и не хранит электронные версии произведений, а лишь предоставляет доступ к создаваемому пользователями каталогу ссылок на торрент-файлы, которые содержат только списки хеш-сумм

[Профиль] [ЛС]
Показать сообщения:    
Ответить на тему

Текущее время: Сегодня 11:58

Часовой пояс: GMT + 4



Вы не можете начинать темы
Вы не можете отвечать на сообщения
Вы не можете редактировать свои сообщения
Вы не можете удалять свои сообщения
Вы не можете голосовать в опросах
Вы не можете прикреплять файлы к сообщениям
Вы не можете скачивать файлы