Заговор / Лидер / Leader (Рам Мукхерджи / Ram Mukherjee) [1964, Индия, Мелодрама, мюзикл, семейный, DVDRip] VO + original

Ответить на тему
 
Автор Сообщение

user ®

Стаж: 12 лет

Сообщений: 15092

Пост Пост: #1 от 19-Янв-2014 04:00

[Цитировать]

Заговор (Лидер) / Leader--
Страна: Индия
Жанр: Мелодрама, мюзикл, семейный
Год выпуска: 1964
Продолжительность: 02:47:09
Перевод: Любительский (одноголосый, закадровый) (Nastia)
Перевод субтитров: jyoti
Cубтитры: Есть (на песни)
Оригинальная аудиодорожка: хинди--Режиссер: Рам Мукхерджи / Ram Mukherjee--В ролях: Дилип Кумар, Виджаянтимала, Джаянт, Насир Хусейн, Д.К. Сапру, Хиралал, Амар, Джанкидас, Лила Мишра, П. Кайлаш, Джагдиш Сетхи, Мерлин, Мотилал, Рам Автар, Мирза Мушарраф, Индира Бансал, Кусум Тхакур, Мадхумати, Раджан Хаксар--Описание: Политика – это грязная игра, и эта история – яркое тому подтверждение. Мудрый лидер Ачарья – это редкое в наше время сочетание популярности и кристальной честности. И, конечно, этот лидер как кость в горле множеству людей. Впрочем, есть у него и приверженцы: прелестная принцесса Сунита (Виджаянтимала) и редактор местной газеты Виджай (Дилип Кумар). Но однажды Ачарью убивают, и волею судеб в его смерти обвиняется Виджай. Что же делать несчастному парню, когда, кажется он один против всего мира? Как добиться торжества справедливости?--Большое спасибо:
larisa_k, за предоставленные материалы
Nastia, за озвучку фильма
Особая благодарность jyoti, за перевод субтитров
Рип и сведение звука: pca1962--
Сэмпл: http://multi-up.com/941530
Качество видео: DVDRip
Формат видео: AVI
Видео: XviD, 640x336, 23.97 fps, 1201 kbps
Аудио: AC3, 48 kHz, 2.0 (stereo), 192 kbps (русский)
Аудио 2: AC3, 48 kHz, 5.1 (6 ch), 384 kbps (хинди)
Формат субтитров: softsub (SRT)-
-

MediaInfo

=== Общие ===
Полное имя : Zagovor.1964.DVDRip.XviD.pca1962.avi
Формат : AVI
Описание формата : Audio Video Interleave
Профиль формата : OpenDML
Размер файла : 2.10 Гб
Длительность : 2ч 47мин
Общий битрейт : 1795 кбит/сек
Програмное обеспечение : VirtualDubModRus 1.5.10.2 (build 2542/release)
Кодирующая библиотека : VirtualDubMod build 2542/release
=== Видео ===
ID (Идентификатор) : 0
Формат : MPEG-4 Visual
Профиль формата : Advanced Simple@L5
Параметр 'BVOP' : 2
Параметр 'QPel' : Нет
Параметр 'GMC' : No warppoints
Параметр 'Matrix' : Default (H.263)
Идентификатор кодека : DX50
Подпись кодека : DivX 5
Длительность : 2ч 47мин
Битрейт : 1201 кбит/сек
Ширина кадра : 640 пикселей
Высота кадра : 336 пикселей
Соотношение сторон : 1.905
Частота кадров : 23.976 кадров/сек
Цветовое пространство : YUV
Субдискретизация насыщенности : 4:2:0
Глубина (разрядность) : 8 bits
Тип развертки : Прогрессивная
Режим сжатия : С потерями
Бит/(пиксель*кадр) : 0.233
Размер потока : 1.40 Гб (67%)
Кодирующая библиотека : XviD 65
=== Аудио 1 ===
ID (Идентификатор) : 1
Формат : AC-3
Описание формата : Audio Coding 3
Mode extension : CM (complete main)
Идентификатор кодека : 2000
Длительность : 2ч 47мин
Тип битрейта : Постоянный
Битрейт : 192 кбит/сек
Канал(ы) : 2 каналов
Расположение каналов : Front: L R
Частота дискретизации : 48.0 кГц
Глубина (разрядность) : 16 bits
Режим сжатия : С потерями
Размер потока : 230 Мб (11%)
Расположение потока : Split accross interleaves
Период чередования : 42 мс (1.00 video frame)
Предварительная загрузка : 500 мс
=== Аудио 2 ===
ID (Идентификатор) : 2
Формат : AC-3
Описание формата : Audio Coding 3
Mode extension : CM (complete main)
Идентификатор кодека : 2000
Длительность : 2ч 47мин
Тип битрейта : Постоянный
Битрейт : 384 кбит/сек
Канал(ы) : 6 каналов
Расположение каналов : Front: L C R, Side: L R, LFE
Частота дискретизации : 48.0 кГц
Глубина (разрядность) : 16 bits
Режим сжатия : С потерями
Размер потока : 459 Мб (21%)
Расположение потока : Split accross interleaves
Период чередования : 42 мс (1.00 video frame)
Предварительная загрузка : 500 мс

Скриншот c названием фильма

Скачать

Скачать торрент! Заговор / Лидер / Leader (Рам Мукхерджи / Ram Mukherjee) [1964, Индия, Мелодрама, мюзикл, семейный, DVDRip] VO + original

Как скачивать? · Что такое торрент? · Рейтинг и ограничения

Сайт не распространяет и не хранит электронные версии произведений, а лишь предоставляет доступ к создаваемому пользователями каталогу ссылок на торрент-файлы, которые содержат только списки хеш-сумм

[Профиль] [ЛС]
Показать сообщения:    
Ответить на тему

Текущее время: Сегодня 12:54

Часовой пояс: GMT + 4



Вы не можете начинать темы
Вы не можете отвечать на сообщения
Вы не можете редактировать свои сообщения
Вы не можете удалять свои сообщения
Вы не можете голосовать в опросах
Вы не можете прикреплять файлы к сообщениям
Вы не можете скачивать файлы