Козы / Козлиный остров / Standing Up / Goat Island (Ди Джей Карузо / D.J. Caruso) [2013, США, мелодрама, семейный, WEB-DL 720p] VO + Sub (Rus, Eng, Heb, Spa, Por) + Original Eng

Ответить на тему
 
Автор Сообщение

user ®

Стаж: 7 лет 7 месяцев

Сообщений: 20008

Пост Пост: #1 от 19-Янв-2014 04:00

[Цитировать]

Козы / Козлиный остров / Standing Up / Goat Island«They ran away and found themselves»- Страна: США
Студия: AR Films, Aldamisa Entertainment, Seven Star Pictures
Жанр: мелодрама, семейный
Год выпуска: 2013
Продолжительность: 01:33:13
Перевод: Одноголосый закадровый (humbert sound studio)
Оригинальная аудиодорожка: английский
Русские субтитры: есть (kitmur)
Другие субтитры: английские, иврит, испанские, португальские-Режиссер: Ди Джей Карузо / D.J. Caruso
Сценарий: Ди Джей Карузо / D.J. Caruso, Брок Коул / Brock Cole
Композитор: Брайан Тайлер / Brian Tyler
Оператор: Алекс Непомнящий / Alex Nepomniaschy
В ролях: Чандлер Кентербери / Chandler Canterbury, Анналиса Бассо / Annalise Basso, Рада Митчелл / Radha Mitchell, Вэл Килмер / Val Kilmer, Кит Флиппен / Keith Flippen, Уильям Дж. Харрисон / William J. Harrison, Джаред Кеммерлинг / Jared Kemmerling, Кейт Маберли / Kate Maberly, Блейк Гриффин / Blake Griffin-Описание: Во исполнение жестокой традиции двух изгоев из детского летнего лагеря, Хауи и Грейс, увозят на необитаемый остров неподалеку и оставляют там ночевать. С тем, чтобы на следующее утро после розыгрыша их, основательно отчаявшихся и униженных своей беспомощностью, забрать обратно. Но на этот раз ситуация вышла из-под контроля, поскольку ребята не смирились с уготованной им ролью, и вместо того, чтобы дожидаться чужой милости, отчаянно двинулись в собственный путь, беря в руки управление своей участью.
Фильм снят по мотивам романа Брока Коула «Козы» (The Goats, 1987).- -Тип релиза: WEB-DL 720p Источник видеоряда - iTunes
Контейнер: MKV
Видео: H264, High@L3.1, 1280x530 (2.40:1), 23.976 fps, 0.242 bpp, 3 939 Kbps
Аудио 1: AC3, 48 kHz, 2 (L,R), 192 kbps | Russian VO
Аудио 2: AC3, 48 kHz, 3/2 (L,C,R,l,r) + LFE ch, 384 kbps | English
Субтитры: русские, английские, иврит, испанские, португальские
Формат субтитров: softsub (SRT)-

Знаете ли вы, что...

  • За излишнюю провокативность роман Брока Коула "Козы" запрещали школы некоторых американских штатов
  • Фильм "Козы" является вторым американским проектом украинского продюсера Александра Роднянского ("Сталинград", "Обитаемый остров")

MediaInfo

Complete name                  : Standing.Up.2013.720p.WEB-DL.H264.mkv
Format                         : Matroska
Format version                 : Version 4 / Version 2
File size                      : 3.00 GiB
Duration                       : 1h 33mn
Overall bit rate               : 4 606 Kbps
Movie name                     : Standing Up 2013
Encoded date                   : UTC 2014-01-16 20:39:37
Writing application            : mkvmerge v6.7.0 ('Back to the Ground') 64bit built on Jan  8 2014 15:10:52
Writing library                : libebml v1.3.0 + libmatroska v1.4.1
Video
ID                             : 1
Format                         : AVC
Format/Info                    : Advanced Video Codec
Format profile                 : Main@L3.1
Format settings, CABAC         : No
Format settings, ReFrames      : 2 frames
Codec ID                       : V_MPEG4/ISO/AVC
Duration                       : 1h 33mn
Bit rate                       : 3 939 Kbps
Width                          : 1 280 pixels
Height                         : 530 pixels
Display aspect ratio           : 2.40:1
Frame rate mode                : Constant
Frame rate                     : 23.976 fps
Color space                    : YUV
Chroma subsampling             : 4:2:0
Bit depth                      : 8 bits
Scan type                      : Progressive
Bits/(Pixel*Frame)             : 0.242
Stream size                    : 2.56 GiB (86%)
Title                          : tt1905042
Language                       : English
Default                        : Yes
Forced                         : No
Color primaries                : BT.709
Transfer characteristics       : BT.709
Matrix coefficients            : BT.709
Audio #1
ID                             : 2
Format                         : AC-3
Format/Info                    : Audio Coding 3
Mode extension                 : CM (complete main)
Format settings, Endianness    : Big
Codec ID                       : A_AC3
Duration                       : 1h 33mn
Bit rate mode                  : Constant
Bit rate                       : 192 Kbps
Channel count                  : 2 channels
Channel positions              : Front: L R
Sampling rate                  : 48.0 KHz
Bit depth                      : 16 bits
Compression mode               : Lossy
Stream size                    : 128 MiB (4%)
Title                          : Russian VO
Language                       : Russian
Default                        : Yes
Forced                         : No
Audio #2
ID                             : 3
Format                         : AC-3
Format/Info                    : Audio Coding 3
Mode extension                 : CM (complete main)
Format settings, Endianness    : Big
Codec ID                       : A_AC3
Duration                       : 1h 33mn
Bit rate mode                  : Constant
Bit rate                       : 384 Kbps
Channel count                  : 6 channels
Channel positions              : Front: L C R, Side: L R, LFE
Sampling rate                  : 48.0 KHz
Bit depth                      : 16 bits
Compression mode               : Lossy
Stream size                    : 256 MiB (8%)
Title                          : English AC3 5.1
Language                       : English
Default                        : No
Forced                         : No
Text #1
ID                             : 4
Format                         : UTF-8
Codec ID                       : S_TEXT/UTF8
Codec ID/Info                  : UTF-8 Plain Text
Title                          : Russian
Language                       : Russian
Default                        : No
Forced                         : No
Text #2
ID                             : 5
Format                         : UTF-8
Codec ID                       : S_TEXT/UTF8
Codec ID/Info                  : UTF-8 Plain Text
Title                          : English
Language                       : English
Default                        : No
Forced                         : No
Text #3
ID                             : 6
Format                         : UTF-8
Codec ID                       : S_TEXT/UTF8
Codec ID/Info                  : UTF-8 Plain Text
Title                          : Hebrew
Language                       : Hebrew
Default                        : No
Forced                         : No
Text #4
ID                             : 7
Format                         : UTF-8
Codec ID                       : S_TEXT/UTF8
Codec ID/Info                  : UTF-8 Plain Text
Title                          : Spanish
Language                       : Spanish
Default                        : No
Forced                         : No
Text #5
ID                             : 8
Format                         : UTF-8
Codec ID                       : S_TEXT/UTF8
Codec ID/Info                  : UTF-8 Plain Text
Title                          : Portuguese
Language                       : Portuguese
Default                        : No
Forced                         : No
Menu
00:00:00.000                   : en:1
00:11:26.000                   : en:2
00:19:26.000                   : en:3
00:27:43.000                   : en:4
00:36:29.000                   : en:5
00:44:03.000                   : en:6
00:49:40.000                   : en:7
00:55:50.000                   : en:8
01:01:40.000                   : en:9
01:09:16.000                   : en:10
01:16:06.000                   : en:11
01:23:36.000                   : en:12

Скриншоты

Скачать

Скачать торрент!

Как скачивать? · Что такое торрент? · Рейтинг и ограничения

Сайт не распространяет и не хранит электронные версии произведений, а лишь предоставляет доступ к создаваемому пользователями каталогу ссылок на торрент-файлы, которые содержат только списки хеш-сумм

[Профиль] [ЛС]
Показать сообщения:    
Ответить на тему

Текущее время: Сегодня 00:43

Часовой пояс: GMT + 4



Вы не можете начинать темы
Вы не можете отвечать на сообщения
Вы не можете редактировать свои сообщения
Вы не можете удалять свои сообщения
Вы не можете голосовать в опросах
Вы не можете прикреплять файлы к сообщениям
Вы не можете скачивать файлы