Клуб «CBGB» / CBGB (Рэндолл Миллер / Randall Miller) [2013, США, драма, музыка, BDRip 720p] DVO (lord666, Rin112) + Original (Eng) + Subs (Rus, Eng)

Ответить на тему
 
Автор Сообщение

user ®

Стаж: 7 лет 7 месяцев

Сообщений: 20008

Пост Пост: #1 от 18-Янв-2014 21:10

[Цитировать]

Клуб «CBGB» / CBGB Страна: США
Жанр: драма, музыка
Год выпуска: 2013
Продолжительность: 01:42:34
Перевод: Любительский (двухголосый закадровый) ,
Оригинальная аудиодорожка: английский
Режиссер: Рэндолл Миллер / Randall Miller
В ролях: Алан Рикман, Малин Акерман, Фредди Родригес, Стана Катич, Ричард де Клерк, Руперт Гринт, Джастин Барта, Джоэль Мур, Джонни Галэки, Донал Лог
Описание:
Взгляд на нью-йоркскую панк-рок сцену и ночной клуб «CBGB».
- ||-Тип релиза: BDRip 720p (рип от CtrlHD)

Контейнер: MKV
Видео: AVC (x264), 1280x534 (2,40:1) at 23,976 fps, 6416 Кbps, 0.392 bpp
Аудио 1: DTS; 1536 Kbps; CBR; 6 ch; 48 khz | DVO - lord666, Rin112 |
Аудио 2: DTS; 1536 Kbps; CBR; 6 ch; 48 khz | Английский |
Формат субтитров: softsub (SRT)

Скриншоты || x264 Info || MediaInfo || Notes

MediaInfo

Общее
Уникальный идентификатор                 : 214612913464441290890501325881029125936 (0xA174F19300BA77BF9C47A76ACB5B6730)
Полное имя                               : Клуб CBGB.2013.DVO.720p.BluRay.x264-CtrlHD.mkv
Формат                                   : Matroska
Версия формата                           : Version 4 / Version 2
Размер файла                             : 6,75 Гбайт
Продолжительность                        : 1 ч. 42 м.
Общий поток                              : 9417 Кбит/сек
Название фильма                          : CBGB [720p] [2013] DVO
Дата кодирования                         : UTC 2014-01-17 10:25:45
Программа кодирования                    : mkvmerge v6.7.0 ('Back to the Ground') 32bit built on Jan  8 2014 15:03:17
Библиотека кодирования                   : libebml v1.3.0 + libmatroska v1.4.1
Видео
Идентификатор                            : 1
Формат                                   : AVC
Формат/Информация                        : Advanced Video Codec
Профиль формата                          : High@L4.1
Параметр CABAC формата                   : Да
Параметр ReFrames формата                : 12 кадров
Идентификатор кодека                     : V_MPEG4/ISO/AVC
Продолжительность                        : 1 ч. 42 м.
Битрейт                                  : 6416 Кбит/сек
Ширина                                   : 1280 пикселей
Высота                                   : 534 пикселя
Соотношение сторон                       : 2,40:1
Режим частоты кадров                     : Постоянный
Частота кадров                           : 23,976 кадра/сек
Цветовое пространство                    : YUV
Субдискретизация насыщенности            : 4:2:0
Битовая глубина                          : 8 бит
Тип развёртки                            : Прогрессивная
Бит/(Пиксели*Кадры)                      : 0.392
Размер потока                            : 4,45 Гбайт (66%)
Заголовок                                : profile.php?mode=viewprofile&u=22488948
Библиотека кодирования                   : x264 core 133 r2334 a3ac64b
Настройки программы                      : cabac=1 / ref=12 / deblock=1:-3:-3 / analyse=0x3:0x113 / me=tesa / subme=11 / psy=1 / psy_rd=1.00:0.00 / mixed_ref=1 / me_range=24 / chroma_me=1 / trellis=2 / 8x8dct=1 / cqm=0 / deadzone=21,11 / fast_pskip=0 / chroma_qp_offset=-4 / threads=12 / lookahead_threads=2 / sliced_threads=0 / nr=0 / decimate=0 / interlaced=0 / bluray_compat=0 / constrained_intra=0 / bframes=8 / b_pyramid=2 / b_adapt=2 / b_bias=0 / direct=3 / weightb=1 / open_gop=0 / weightp=2 / keyint=250 / keyint_min=23 / scenecut=40 / intra_refresh=0 / rc=2pass / mbtree=0 / bitrate=6416 / ratetol=1.0 / qcomp=0.60 / qpmin=0 / qpmax=69 / qpstep=4 / cplxblur=20.0 / qblur=0.5 / ip_ratio=1.20 / pb_ratio=1.30 / aq=1:0.80
Язык                                     : English
Default                                  : Да
Forced                                   : Нет
Аудио #1
Идентификатор                            : 2
Формат                                   : DTS
Формат/Информация                        : Digital Theater Systems
Режим                                    : 16
Параметр Endianness формата              : Big
Идентификатор кодека                     : A_DTS
Продолжительность                        : 1 ч. 42 м.
Вид битрейта                             : Постоянный
Битрейт                                  : 1510 Кбит/сек
Каналы                                   : 6 каналов
Расположение каналов                     : Front: L C R, Side: L R, LFE
Частота                                  : 48,0 КГц
Битовая глубина                          : 24 бит
Метод сжатия                             : С потерями
Размер потока                            : 1,08 Гбайт (16%)
Заголовок                                : DVO [lord666, Rin112]
Язык                                     : Russian
Default                                  : Да
Forced                                   : Нет
Аудио #2
Идентификатор                            : 3
Формат                                   : DTS
Формат/Информация                        : Digital Theater Systems
Режим                                    : 16
Параметр Endianness формата              : Big
Идентификатор кодека                     : A_DTS
Продолжительность                        : 1 ч. 42 м.
Вид битрейта                             : Постоянный
Битрейт                                  : 1509 Кбит/сек
Каналы                                   : 6 каналов
Расположение каналов                     : Front: L C R, Side: L R, LFE
Частота                                  : 48,0 КГц
Битовая глубина                          : 24 бит
Метод сжатия                             : С потерями
Размер потока                            : 1,08 Гбайт (16%)
Язык                                     : English
Default                                  : Нет
Forced                                   : Нет
Текст #1
Идентификатор                            : 4
Формат                                   : UTF-8
Идентификатор кодека                     : S_TEXT/UTF8
Идентификатор кодека/Информация          : UTF-8 Plain Text
Заголовок                                : SDH
Язык                                     : English
Default                                  : Нет
Forced                                   : Нет
Текст #2
Идентификатор                            : 5
Формат                                   : UTF-8
Идентификатор кодека                     : S_TEXT/UTF8
Идентификатор кодека/Информация          : UTF-8 Plain Text
Заголовок                                : [HinoJaySimpson]
Язык                                     : Russian
Default                                  : Нет
Forced                                   : Нет
Меню
00:00:00.000                             : en:
00:07:47.008                             : en:
00:13:08.454                             : en:
00:18:14.885                             : en:
00:23:47.634                             : en:
00:32:56.057                             : en:
00:36:39.238                             : en:
00:43:37.281                             : en:
00:48:43.545                             : en:
00:54:53.999                             : en:
01:02:58.649                             : en:
01:08:59.510                             : en:
01:13:43.836                             : en:
01:18:46.638                             : en:
01:24:05.832                             : en:
01:31:15.344                             : en:
x264 [info]: frame I:1563 Avg QP:11.69 size:127027
x264 [info]: frame P:37489 Avg QP:13.36 size: 57466
x264 [info]: frame B:108510 Avg QP:14.78 size: 23655
x264 [info]: consecutive B-frames: 4.9% 5.0% 12.9% 18.8% 20.1% 28.9% 5.1% 2.3% 2.1%
Скачать

Скачать торрент!

Как скачивать? · Что такое торрент? · Рейтинг и ограничения

Сайт не распространяет и не хранит электронные версии произведений, а лишь предоставляет доступ к создаваемому пользователями каталогу ссылок на торрент-файлы, которые содержат только списки хеш-сумм

[Профиль] [ЛС]
Показать сообщения:    
Ответить на тему

Текущее время: Сегодня 00:09

Часовой пояс: GMT + 4



Вы не можете начинать темы
Вы не можете отвечать на сообщения
Вы не можете редактировать свои сообщения
Вы не можете удалять свои сообщения
Вы не можете голосовать в опросах
Вы не можете прикреплять файлы к сообщениям
Вы не можете скачивать файлы