ВАЛЛ-И / WALL-E (Эндрю Стэнтон / Andrew Stanton) [2008, США, Фантастика, мультфильм, комедия, семейный, HDRip] Dub

Ответить на тему
 
Автор Сообщение

user ®

Стаж: 13 лет

Сообщений: 15041

Пост Пост: #1 от 18-Янв-2014 14:50

[Цитировать]

Название: BAЛЛ-И / WАLL-Е
Страна: США
Жанр: Фантастика, мультфильм, комедия, семейный
Год выпуска: 2008
Продолжительность: 01:37:25
Перевод: Профессиональный (дублированный)
Cубтитры: Нет
Оригинальная аудиодорожка: Нет
Режиссер: Эндрю Стэнтон / Andrew Stanton--Роли озвучивали: Бен Бертт, Элисса Найт, Джефф Гарлин, Фред Уиллард, Джон Ратценбергер, Кэти Нэджими, Сигурни Уивер, Ники МакЭлрой, Гаррет Палмер, Кай Стил Смит..-Роли дублировали: Андрей Лёвин, Михаил Хрусталев, Марианна Мокшина, Сергей Русскин, Марк Макаренков--Описание: Робот BAЛЛ-И из года в год прилежно трудится на опустевшей Земле, очищая нашу планету от гор мусора, которые оставили после себя улетевшие в космос люди. Он и не представляет, что совсем скоро произойдут невероятные события, благодаря которым он встретит друзей, поднимется к звездам и даже сумеет изменить к лучшему своих бывших хозяев, совсем позабывших родную Землю.--Качество видео: HDRip
Формат видео: AVI
Видео: 688x288 (2.39:1), 23.976 fps, XviD build 65 ~934 kbps avg, 0.20 bit/pixel
Аудио 1: 48 kHz, MPEG Layer 3, 2 ch, ~128.00 kbps avg
Cубтитры: Отсутствуют

Скриншоты

MediaInfo

General
Complete name : WALL-E.2008.avi
Format : AVI
Format/Info : Audio Video Interleave
File size : 747 MiB
Duration : 1h 37mn
Overall bit rate : 1 072 Kbps
Writing application : VirtualDubMod 1.5.10.3 | www.virtualdub-fr.org || (build 2550/release)
Writing library : VirtualDubMod build 2550/release
Video
ID : 0
Format : MPEG-4 Visual
Format profile : Advanced Simple@L5
Format settings, BVOP : 1
Format settings, QPel : No
Format settings, GMC : No warppoints
Format settings, Matrix : Custom
Codec ID : XVID
Codec ID/Hint : XviD
Duration : 1h 37mn
Bit rate : 934 Kbps
Width : 688 pixels
Height : 288 pixels
Display aspect ratio : 2.40:1
Frame rate : 23.976 fps
Color space : YUV
Chroma subsampling : 4:2:0
Bit depth : 8 bits
Scan type : Progressive
Compression mode : Lossy
Bits/(Pixel*Frame) : 0.197
Stream size : 651 MiB (87%)
Writing library : XviD 65
Audio
ID : 1
Format : MPEG Audio
Format version : Version 1
Format profile : Layer 3
Codec ID : 55
Codec ID/Hint : MP3
Duration : 1h 37mn
Bit rate mode : Constant
Bit rate : 128 Kbps
Channel count : 2 channels
Sampling rate : 48.0 KHz
Compression mode : Lossy
Stream size : 89.2 MiB (12%)
Alignment : Aligned on interleaves
Interleave, duration : 42 ms (1.00 video frame)
Interleave, preload duration : 504 ms
Writing library : LAME3.99r
Encoding settings : -m s -V 4 -q 2 -lowpass 17 -b 128
Скачать

Скачать торрент! ВАЛЛ-И / WALL-E (Эндрю Стэнтон / Andrew Stanton) [2008, США, Фантастика, мультфильм, комедия, семейный, HDRip] Dub

Как скачивать? · Что такое торрент? · Рейтинг и ограничения

Сайт не распространяет и не хранит электронные версии произведений, а лишь предоставляет доступ к создаваемому пользователями каталогу ссылок на торрент-файлы, которые содержат только списки хеш-сумм

[Профиль] [ЛС]
Показать сообщения:    
Ответить на тему

Текущее время: Сегодня 00:15

Часовой пояс: GMT + 4



Вы не можете начинать темы
Вы не можете отвечать на сообщения
Вы не можете редактировать свои сообщения
Вы не можете удалять свои сообщения
Вы не можете голосовать в опросах
Вы не можете прикреплять файлы к сообщениям
Вы не можете скачивать файлы