Инферно / Out of Inferno (Оксид Пан / Oxide Pang, Дэнни Пан / Danny Pang) [2013, Гонконг, драма, катастрофа, BDRip] DVO

Ответить на тему
 
Автор Сообщение

user ®

Стаж: 11 лет

Сообщений: 15151

Пост Пост: #1 от 17-Янв-2014 21:15

[Цитировать]

Инферно / Out of Inferno
Страна: Гонконг
Жанр: драма, катастрофа
Год выпуска: 2013
Продолжительность: 01:47:14-Перевод: Любительский (двухголосый закадровый) Ольга Гринтиева & Дмитрий Познанский (GREEN TEA)
Cубтитры: нет
Оригинальная аудиодорожка: нет-Релиз группы: -Режиссер: Оксид Пан / Oxide Pang, Дэнни Пан / Danny Pang
В ролях: Лау Чын Вань, Луис Ку, Анджелина Ли, Чэнь Сы Чэн, Натали Тун, Кристал Ли, Чун Чыу Фай-Описание: В крупном торговом центре начинается пожар . Огромное количество людей, ставшие заложниками огня, пытаются дожить до прибытия пожарных . Пожарные, рискуя жизнями, спасают людей... в то время как пожар разгорается все сильнее по вине хозяина ТРЦ , хранившего на верхних этажах химические отходы.- -Качество видео: BDRip (BD25)
Формат видео: AVI
Видео: XviD, 720x400 (1.80:1), 24.000 fps, 1750 kbps avg, 0.25 bit/pixel
Аудио: Русский MPEG layer 3, 192 kbps, 2 ch

Доп. информация

Перевод на русский: Эльза Нордж
Рип и постер: Public Enemy (((

MediaInfo

Format : AVI
Format/Info : Audio Video Interleave
File size : 1.46 GiB
Duration : 1h 47mn
Overall bit rate : 1 952 Kbps
Writing application : VirtualDubMod 1.5.10.2 (build 2540/release)
Writing library : VirtualDubMod build 2540/release
Video
ID : 0
Format : MPEG-4 Visual
Format profile : Advanced Simple@L5
Format settings, BVOP : 1
Format settings, QPel : No
Format settings, GMC : No warppoints
Format settings, Matrix : Custom
Codec ID : XVID
Codec ID/Hint : XviD
Duration : 1h 47mn
Bit rate : 1 750 Kbps
Width : 720 pixels
Height : 400 pixels
Display aspect ratio : 16:9
Frame rate : 24.000 fps
Color space : YUV
Chroma subsampling : 4:2:0
Bit depth : 8 bits
Scan type : Progressive
Compression mode : Lossy
Bits/(Pixel*Frame) : 0.253
Stream size : 1.31 GiB (90%)
Writing library : XviD 73
Audio
ID : 1
Format : MPEG Audio
Format version : Version 1
Format profile : Layer 3
Mode : Joint stereo
Codec ID : 55
Codec ID/Hint : MP3
Duration : 1h 47mn
Bit rate mode : Constant
Bit rate : 192 Kbps
Channel(s) : 2 channels
Sampling rate : 48.0 KHz
Compression mode : Lossy
Stream size : 147 MiB (10%)
Alignment : Aligned on interleaves
Interleave, duration : 42 ms (1.00 video frame)
Interleave, preload duration : 504 ms

Скриншот с названием фильма

Скриншоты

Скачать

Скачать торрент! Инферно / Out of Inferno (Оксид Пан / Oxide Pang, Дэнни Пан / Danny Pang) [2013, Гонконг, драма, катастрофа, BDRip] DVO

Как скачивать? · Что такое торрент? · Рейтинг и ограничения

Сайт не распространяет и не хранит электронные версии произведений, а лишь предоставляет доступ к создаваемому пользователями каталогу ссылок на торрент-файлы, которые содержат только списки хеш-сумм

[Профиль] [ЛС]
Показать сообщения:    
Ответить на тему

Текущее время: Сегодня 20:23

Часовой пояс: GMT + 4



Вы не можете начинать темы
Вы не можете отвечать на сообщения
Вы не можете редактировать свои сообщения
Вы не можете удалять свои сообщения
Вы не можете голосовать в опросах
Вы не можете прикреплять файлы к сообщениям
Вы не можете скачивать файлы