Снежная Королева / The Snow Queen (Мартин Гэйтс / Martin Gates) [1995 г., мультфильм, SATRip] DUB (Первый канал)

Ответить на тему
 
Автор Сообщение

user ®

Стаж: 12 лет

Сообщений: 15145

Пост Пост: #1 от 17-Янв-2014 04:15

[Цитировать]

Снежная Королева / The Snow Queen
Год выпуска: 1995
Страна: Великобритания, Martin Gates Productions
Жанр: мультфильм
Продолжительность: 01:09:19
Перевод: Профессиональный (дублированный) по заказу ЗАО «Первый канал. Всемирная сеть»
Русские субтитры: нет
Режиссёр: Мартин Гэйтс / Martin Gates
Описание: Однажды, в обычном доме, в обычном городе, вместе с бабушкой жили Том и Элли. И все у них было хорошо до тех пор, пока Снежная королева не решила превратить весь мир в свое ледовое царство. Она создала волшебное зеркало, которое отражало бы лучи Солнца, и велела верным троллям отнести его на высокую гору. Но неуклюжие слуги разбили зеркало на мелкие кусочки, разлетевшиеся по всему свету.
И два самых маленьких осколка попали Тому в глаза — и он стал видеть белое черным, и в сердце — оно стало злым и холодным ...-Доп. информация:

Трансляция спутникового канала: | Семпл-Качество: SATRip
Формат: AVI
Видео: 688x528 (1.30:1), 25 fps, XviD build 65 ~2069 kbps avg, 0.23 bit/pixel
Аудио: 48 kHz, AC3 Dolby Digital, 2/0 (L,R) ch, ~192 kbps

Сравнение


[url=http://***/forum/viewtopic.php?t=3549034]http://***/forum/viewtopic.php?t=3549034[/url]
http://screenshotcomparison.com/comparison/57462/

MediaInfo

GeneralComplete name : The Snow Queen_1995_Olu6ka.aviFormat : AVIFormat/Info : Audio Video InterleaveFile size : 1.10 GiBDuration : 1h 9mnOverall bit rate : 2 271 KbpsWriting application : VirtualDubMod 1.5.10.3Writing library : VirtualDubMod build 2550/release
VideoID : 0Format : MPEG-4 VisualFormat profile : Advanced Simple@L5Format settings, BVOP : 1Format settings, QPel : NoFormat settings, GMC : No warppointsFormat settings, Matrix : CustomCodec ID : XVIDCodec ID/Hint : XviDDuration : 1h 9mnBit rate : 2 070 KbpsWidth : 688 pixelsHeight : 528 pixelsDisplay aspect ratio : 4:3Frame rate : 25.000 fpsColor space : YUVChroma subsampling : 4:2:0Bit depth : 8 bitsScan type : ProgressiveCompression mode : LossyBits/(Pixel*Frame) : 0.228Stream size : 1.00 GiB (91%)Writing library : XviD 65
AudioID : 1Format : AC-3Format/Info : Audio Coding 3Mode extension : CM (complete main)Format settings, Endianness : BigCodec ID : 2000Duration : 1h 9mnBit rate mode : ConstantBit rate : 192 KbpsChannel count : 2 channelsChannel positions : Front: L RSampling rate : 48.0 KHzBit depth : 16 bitsCompression mode : LossyStream size : 95.2 MiB (8%)Alignment : Split accross interleavesInterleave, duration : 40 ms (1.00 video frame)Interleave, preload duration : 500 ms
Спасибо SLuMeP за исходники!Релиз от группы
Скачать

Скачать торрент! Снежная Королева / The Snow Queen (Мартин Гэйтс / Martin Gates) [1995 г., мультфильм, SATRip] DUB (Первый канал)

Как скачивать? · Что такое торрент? · Рейтинг и ограничения

Сайт не распространяет и не хранит электронные версии произведений, а лишь предоставляет доступ к создаваемому пользователями каталогу ссылок на торрент-файлы, которые содержат только списки хеш-сумм

[Профиль] [ЛС]
Показать сообщения:    
Ответить на тему

Текущее время: Сегодня 12:05

Часовой пояс: GMT + 4



Вы не можете начинать темы
Вы не можете отвечать на сообщения
Вы не можете редактировать свои сообщения
Вы не можете удалять свои сообщения
Вы не можете голосовать в опросах
Вы не можете прикреплять файлы к сообщениям
Вы не можете скачивать файлы