Ржевский против Наполеона (Марюс Вайсберг / Marius Balchunas) [2012, Россия, Украина, комедия, BDRip 720p]

Ответить на тему
 
Автор Сообщение

user ®

Стаж: 7 лет 7 месяцев

Сообщений: 20008

Пост Пост: #1 от 16-Янв-2014 22:20

[Цитировать]

Ржевский против Наполеона
Страна: Россия, Украина
Жанр: комедия
Год выпуска: 2012
Продолжительность: 01:23:08
Перевод: Не требуется
Cубтитры: нет
Режиссер: Марюс Вайсберг (Marius Balchunas)
В ролях: Павел Деревянко, Владимир Зеленский, Светлана Ходченкова, Михаил Ефремов, Марат Башаров, Евгений Кошевой, Жан-Клод Ван Дамм, Анна Семенович, Анфиса Чехова, Михаил Галустян
Описание: Чтобы развеять скуку, Наполеон Бонапарт затеял мировую войну. Не пропуская ни одной юбки, он оказывается со своей армией у ворот Первопрестольной. Русские полководцы решают внедрить к нему неприступную красавицу, la femme fatal, чтобы отвлечь узурпатора от захватнической деятельности. Только какая настоящая женщина устоит перед обаянием этого великого бабника? Ненастоящая!!! В смысле - переодетый мужчина! И такой мужчина есть - поручик Ржевский...
Доп. информация: Сохранены оригинальные чаптеры как на Blu-ray.
Сэмпл: http://multi-up.com/940335
Тип релиза: BDRip 720p
Контейнер: MKV
Видео: AVC 1280 x 536 (2.388) at 23.976 fps, 5623 kbps
Аудио: DTS / 5.1 / 48 kHz / 1509 kbps

MediaInfo

Общее
Уникальный идентификатор : 223615986482730764481242788461454961037 (0xA83ADF584C6ACA4EB47BDD5E12FA298D)
Полное имя : C:\Ржевский против Наполеона\Rzhevskij.protiv.Napoleona.2011.720p.BluRay.Rus.HDCLUB.mkv
Формат : Matroska
Версия формата : Version 2
Размер файла : 4,23 Гбайт
Продолжительность : 1 ч. 23 м.
Общий поток : 7277 Кбит/сек
Название фильма : Ржевский против Наполеона (2011) - Release for HDCLUB
Дата кодирования : UTC 2012-03-31 18:48:25
Программа кодирования : mkvmerge v5.4.0 ('Piper') built on Mar 10 2012 13:34:39
Библиотека кодирования : libebml v1.2.3 + libmatroska v1.3.0
Видео
Идентификатор : 1
Формат : AVC
Формат/Информация : Advanced Video Codec
Профиль формата : High@L4.1
Параметр CABAC формата : Да
Параметр ReFrames формата : 10 кадров
Идентификатор кодека : V_MPEG4/ISO/AVC
Продолжительность : 1 ч. 23 м.
Битрейт : 5623 Кбит/сек
Ширина : 1280 пикселей
Высота : 536 пикселей
Соотношение сторон : 2,40:1
Режим частоты кадров : Постоянный
Частота кадров : 23,976 кадра/сек
Цветовое пространство : YUV
Субдискретизация насыщенности : 4:2:0
Битовая глубина : 8 бит
Тип развёртки : Прогрессивная
Бит/(Пиксели*Кадры) : 0.342
Размер потока : 3,27 Гбайт (77%)
Заголовок : Ржевский против Наполеона (2011) - Release for HDCLUB
Библиотека кодирования : x264 core 122 r2184 5c85e0a
Настройки программы : cabac=1 / ref=10 / deblock=1:-3:-3 / analyse=0x3:0x133 / me=umh / subme=11 / psy=1 / psy_rd=1.00:0.00 / mixed_ref=1 / me_range=64 / chroma_me=1 / trellis=2 / 8x8dct=1 / cqm=0 / deadzone=21,11 / fast_pskip=0 / chroma_qp_offset=-2 / threads=9 / sliced_threads=0 / nr=0 / decimate=0 / interlaced=0 / bluray_compat=0 / constrained_intra=0 / bframes=6 / b_pyramid=2 / b_adapt=2 / b_bias=0 / direct=3 / weightb=1 / open_gop=0 / weightp=2 / keyint=240 / keyint_min=23 / scenecut=40 / intra_refresh=0 / rc_lookahead=40 / rc=crf / mbtree=0 / crf=16.0 / qcomp=0.60 / qpmin=0 / qpmax=69 / qpstep=4 / vbv_maxrate=50000 / vbv_bufsize=62500 / crf_max=0.0 / nal_hrd=none / ip_ratio=1.40 / pb_ratio=1.30 / aq=1:0.80
Язык : Russian
Default : Да
Forced : Да
Аудио
Идентификатор : 2
Формат : DTS
Формат/Информация : Digital Theater Systems
Режим : 16
Параметр Endianness формата : Big
Идентификатор кодека : A_DTS
Продолжительность : 1 ч. 23 м.
Вид битрейта : Постоянный
Битрейт : 1509 Кбит/сек
Каналы : 6 каналов
Расположение каналов : Front: L C R, Side: L R, LFE
Частота : 48,0 КГц
Битовая глубина : 24 бит
Метод сжатия : С потерями
Размер потока : 897 Мбайт (21%)
Язык : Russian
Default : Да
Forced : Да
Меню
00:00:00.000 : en:00:00:00.000
00:04:33.315 : en:00:04:33.315
00:09:04.335 : en:00:09:04.335
00:13:34.105 : en:00:13:34.105
00:18:46.292 : en:00:18:46.292
00:22:49.577 : en:00:22:49.577
00:29:43.824 : en:00:29:43.824
00:35:33.298 : en:00:35:33.298
00:41:15.556 : en:00:41:15.556
00:46:40.923 : en:00:46:40.923
00:49:47.443 : en:00:49:47.443
00:58:23.375 : en:00:58:23.375
01:04:45.256 : en:01:04:45.256
01:09:20.782 : en:01:09:20.782
01:14:05.816 : en:01:14:05.816
01:19:35.938 : en:01:19:35.938

Скриншоты

Скачать

Скачать торрент!

Как скачивать? · Что такое торрент? · Рейтинг и ограничения

Сайт не распространяет и не хранит электронные версии произведений, а лишь предоставляет доступ к создаваемому пользователями каталогу ссылок на торрент-файлы, которые содержат только списки хеш-сумм

[Профиль] [ЛС]
Показать сообщения:    
Ответить на тему

Текущее время: Сегодня 15:56

Часовой пояс: GMT + 4



Вы не можете начинать темы
Вы не можете отвечать на сообщения
Вы не можете редактировать свои сообщения
Вы не можете удалять свои сообщения
Вы не можете голосовать в опросах
Вы не можете прикреплять файлы к сообщениям
Вы не можете скачивать файлы