Такер: Человек и его мечта / Tucker: The Man and His Dream (Френсис Форд Коппола / Francis Ford Coppola) [1988, США, Драма, биография, WEB-DL 720p] AVO (Дохалов) + MVO + Sub Eng + Original Eng

Ответить на тему
 
Автор Сообщение

user ®

Стаж: 7 лет 7 месяцев

Сообщений: 20008

Пост Пост: #1 от 16-Янв-2014 22:20

[Цитировать]

Такер: Человек и его мечта / Tucker: The Man and His Dream
Страна: США
Студия: Lucasfilm
Жанр: Драма, биография,
Год выпуска: 1988
Продолжительность: 01:50:33
Перевод 1: Авторский (одноголосый закадровый) - ВАРТАН ДОХАЛОВ
Перевод 2: Профессиональный (многоголосый закадровый)
Cубтитры: английские
Оригинальная аудиодорожка: английский
Режиссер: Френсис Форд Коппола / Francis Ford Coppola
В ролях: Джефф Бриджес /Jeff Bridges/, Мартин Ландау /Martin Landau/, Джоан Аллен /Joan Allen/, Фредерик Форрест /Frederic Forrest/, Кристиан Слейтер /Christian Slater/, Ллойд Бриджес /Lloyd Bridges/, Дин Стокуэлл /Dean Stockwell/, Мако /Mako/, Элиас Котеас /Elias Koteas/, Андерс Джонсон /Anders Johnson/, Корин Немек /Corin Nemec (в титрах: Corky Nemec)/, Маршалл Белл /Marshall Bell/, Джей О. Сэндерс /Jay O. Sanders/, Питер Донат /Peter Donat/, Дин Гудман /Dean Goodman/, Джон И. Харт /John X. Heart/, Дон Новелло /Don Novello/, Патти Остин /Patti Austin/, Сэнди Булл /Sandy Bull/, Джо Миксак /Joe Miksak (в титрах: Joseph Miksak)/, Скотт Бич /Scott Beach/, Роланд Скривнер /Roland Scrivner/, Дин Стокуэлл /Dean Stockwell/"
Описание: Престон Такер (Бриджес) был мечтателем и бунтовщиком, чей гений и передовой дизайн в производстве автомобилей угрожал благополучию могущественных индустриальных гигантов США и политиков, которые их защищали. Его нововведения 40-х годов, такие, как пристежные ремни, системав вспрыска топлива и дисковые тормоза, используются и по сей день. Но основная мысль картины в том, что хорошие ребята редко выигрывают в реальной жизни. Бриджис достигает вершин мастерства в финальных сценах судебного процесса. (Иванов М.)
"Альтернативное описание: Человек и его мечта.
Многострадальная картина Френсиса Копполы, пережившая огромное количество изменений, как в плане формы, так и в плане сценария и целого ряда актеров мировой величины.
Еще с детства Френсис был поражен автомобилем Такера и её создателем. И в 70-х молодой режиссер хотел поставить «темный мюзикл» о жизни Престона Такера в главной роли с Джеком Николсоном, но после нескольких провальных фильмов его студии, Коппола напрочь отказался от этой идеи. Спустя более 10 лет, друг и партнер Копполы Джордж Лукас (всем известный нам создатель Звездных Войн) оживил эту идею, но предложил Френсису изменить форму фильма и поставить его в стиле классических картин Френка Капры, при его непосредственном участии в проекте. Но Капра отказался от предложения, так как считал, что идея фильма провальна в финансовом плане (как потом оказалось, он был прав, фильм таки не добрал необходимую сумму). И несмотря на это, Коппола вместе со сценаристом Капры переписали ранний сценарий и сняли натоящий байопик на независимые деньги Лукаса, так как другие студии опасались работать с Джорджем после нескольких провальных проектов под его руководством в 80-х.
И так, фильм вышел. Денег не собрал зато номинировался аж на 3 оскара. Актеры играют безупречно, поэтому подключиться к переживаниям героев очень легко во время просмотра. тут даже показали персонаж известного Авиатора Говарда Хьюза, которого, просто гениально, сыграл Дин Стокуэлл. Вот это харизма, дамы и господа.
Ничего о сюжете не скажу. Отмечу только то, что фильм превысил все мои ожидания." (Кубрег)
--------------------------------------------------------------------------------
Оператор: Витторио Стораро /Vittorio Storaro/
Сценарист: Арнолд Шулмэн /Arnold Schulman/, Дэвид Сейдлер /David Seidler/
Продюсер: Фрэд Фукс /Fred Fuchs/, Фред Роос /Fred Roos/
Монтажер: Присцилла Недд-Френдли /Priscilla Nedd-Friendly/
Композитор: Джо Джексон /Joe Jackson/
Художник: Дин Тавуларис /Dean Tavoularis/
--------------------------------------------------
КИНОПОИСК. RU
РЕЙТИНГ -7.473 оценки: 376
6,9/10 from 9 983 users
--------------------------------------------------

Награды

Награды:
Оскар, 1989 год

Номинации (3):
* Лучшая мужская роль второго плана (Мартин Ландау)
* Лучшие декорации
* Лучшие костюмы
Золотой глобус, 1989 год

Победитель (1):
* Лучшая мужская роль второго плана (Мартин Ландау)
Британская академия, 1989 год

Победитель (1):
* Лучшая работа художника-постановщика
--------------------------------------------------
--------------------------------------------------
СЭМПЛ
--------------------------------------------------
Примечание: Скорость маленькая 50 kb/c, но раздаю круглосуточно.
--------------------------------------------------
Тип релиза: WEB-DL 720p
Контейнер: MKV
Видео: H.264, 1280x644; 23.976 fps; ~ 3 821 Kbps; 0.193 Bits/Pixel
Аудио 1: Russian - 48 kHz, AC3 Dolby Digital, Front: L C R, Side: L R, LFE 6ch, ~ 448 kbps - Вартан Дохалов
Аудио 2: Russian - 48 kHz, AC3 Dolby Digital, 1/0 Front: C, , ~ 96 kbps - МVO
Аудио 3: English - 48 kHz, AC3 Dolby Digital, 2/0 (L,R) ch, ~192 kbps - Kомментарии режиссера
Аудио 4: English - 48 kHz, AC3 Dolby Digital, Front: L C R, Side: L R, LFE 6ch, ~ 448 kbps - Original
Формат субтитров: English (*UTF-8)

MediaInfo

General
Complete name : F:\EXCLUZIVE=19\ТАКЕР ЧЕЛОВЕК И ЕГО МЕЧТА=Tucker.The.Man.and.His.Dream.1988\Tucker.The.Man.and.His.Dream.1988\Tucker.The.Man.and.His.Dream.1988.720p.WEB-DL.DD5.1.mkv
Format : Matroska
File size : 3.94 GiB
Duration : 1h 50mn
Overall bit rate : 5 107 Kbps
Encoded date : UTC 2014-01-15 01:29:49
Writing application : mkvmerge v3.3.0 ('Language') built on Mar 24 2010 14:59:24
Writing library : libebml v0.8.0 + libmatroska v0.9.0
Video
ID : 1
Format : AVC
Format/Info : Advanced Video Codec
Format profile : High@L3.1
Format settings, CABAC : No
Format settings, ReFrames : 2 frames
Muxing mode : Container profile=Unknown@3.1
Codec ID : V_MPEG4/ISO/AVC
Duration : 1h 50mn
Bit rate : 3 821 Kbps
Width : 1 280 pixels
Height : 644 pixels
Display aspect ratio : 1.988
Frame rate : 23.976 fps
Color space : YUV
Chroma subsampling : 4:2:0
Bit depth : 8 bits
Scan type : Progressive
Bits/(Pixel*Frame) : 0.193
Stream size : 2.95 GiB (75%)
Title : Tucker.The.Man.and.His.Dream.1988.
Language : English
Color primaries : BT.709-5, BT.1361, IEC 61966-2-4, SMPTE RP177
Transfer characteristics : BT.709-5, BT.1361
Matrix coefficients : BT.709-5, BT.1361, IEC 61966-2-4 709, SMPTE RP177
Audio #1
ID : 2
Format : AC-3
Format/Info : Audio Coding 3
Mode extension : CM (complete main)
Codec ID : A_AC3
Duration : 1h 50mn
Bit rate mode : Constant
Bit rate : 448 Kbps
Channel(s) : 6 channels
Channel positions : Front: L C R, Side: L R, LFE
Sampling rate : 48.0 KHz
Stream size : 354 MiB (9%)
Title : AVO Дохалов @ AC3 6 ch. 448 kbps
Language : Russian
Audio #2
ID : 3
Format : AC-3
Format/Info : Audio Coding 3
Mode extension : CM (complete main)
Codec ID : A_AC3
Duration : 1h 50mn
Bit rate mode : Constant
Bit rate : 96.0 Kbps
Channel(s) : 1 channel
Channel positions : Front: C
Sampling rate : 48.0 KHz
Stream size : 75.9 MiB (2%)
Title : MVO @ AC3 1ch. 96 kbps
Language : Russian
Audio #3
ID : 4
Format : AC-3
Format/Info : Audio Coding 3
Format profile : Dolby Digital
Mode extension : CM (complete main)
Codec ID : A_AC3
Duration : 1h 50mn
Bit rate mode : Constant
Bit rate : 192 Kbps
Channel(s) : 2 channels
Channel positions : Front: L R
Sampling rate : 48.0 KHz
Stream size : 152 MiB (4%)
Title : Kомментарии режиссера @ AC3 2ch. 192 kbps
Language : English
Audio #4
ID : 5
Format : AC-3
Format/Info : Audio Coding 3
Mode extension : CM (complete main)
Codec ID : A_AC3
Duration : 1h 50mn
Bit rate mode : Constant
Bit rate : 448 Kbps
Channel(s) : 6 channels
Channel positions : Front: L C R, Side: L R, LFE
Sampling rate : 48.0 KHz
Stream size : 354 MiB (9%)
Title : Original @ AC3 6 ch. 448 kbps
Language : English
Text
ID : 6
Format : UTF-8
Codec ID : S_TEXT/UTF8
Codec ID/Info : UTF-8 Plain Text
Title : (* UTF-8)
Language : English
Menu
00:00:00.000 : en:Chapter 1
00:15:40.000 : en:Chapter 2
00:30:03.000 : en:Chapter 3
00:45:38.000 : en:Chapter 4
01:01:17.000 : en:Chapter 5
01:16:10.000 : en:Chapter 6
01:28:04.000 : en:Chapter 7
01:42:07.000 : en:Chapter 8

Скриншоты

, ,
, ,
, ,
Скачать

Скачать торрент!

Как скачивать? · Что такое торрент? · Рейтинг и ограничения

Сайт не распространяет и не хранит электронные версии произведений, а лишь предоставляет доступ к создаваемому пользователями каталогу ссылок на торрент-файлы, которые содержат только списки хеш-сумм

[Профиль] [ЛС]
Показать сообщения:    
Ответить на тему

Текущее время: Сегодня 09:53

Часовой пояс: GMT + 4



Вы не можете начинать темы
Вы не можете отвечать на сообщения
Вы не можете редактировать свои сообщения
Вы не можете удалять свои сообщения
Вы не можете голосовать в опросах
Вы не можете прикреплять файлы к сообщениям
Вы не можете скачивать файлы