Горько! (Жора Крыжовников) [2013 г., Комедия, приключения, DVDRip-AVC] [Лицензия]

Ответить на тему
 
Автор Сообщение

user ®

Стаж: 7 лет 7 месяцев

Сообщений: 20008

Пост Пост: #1 от 16-Янв-2014 22:20

[Цитировать]

Горько!«Главное не нажраться» -Страна: Россия
Жанр: комедия
Год выпуска: 2013
Продолжительность: 01:36:51
Перевод: Оригинал |Лицензия|-Режиссер: Жора Крыжовников-В ролях: Сергей Светлаков, Юлия Александрова, Егор Корешков, Ян Цапник, Данила Якушев, Юлия Сулес, Елена Валюшкина, Александр Паль, Сергей Лавыгин, Анастасия Добахова, Валентина Мазунина, Владимир Тебенко, Евгений Кушпель, Максим Казаков-Описание: Прогрессивные и талантливые Наташа и Рома мечтают о европейской свадьбе на берегу моря… но у Наташиного отчима заготовлен другой сценарий. Грубый чиновник городской администрации рассматривает торжество как трамплин для собственной карьеры и стремится устроить все «как надо». Молодых ждет незабываемый вечер в ресторане «Золотой» с полным набором занудных обрядов. Не в силах бороться, ребята решают провести свадьбу своей мечты в секрете от консервативных родственников. Но по нелепой случайности оба торжества сливаются воедино.- -Автор рипа:_Flash-Качество видео: DVDRip-AVC |DVD9|
Формат видео: MKV
Видео: 1024x576, 25.000 fps, ~1703 kbps avg, ~0.120 bit/pixel
Аудио: 48 kHz, AC3 Dolby Digital, 3/2 (L,C,R,l,r) + LFE ch, 448.00 kbps Constant |Оригинал|
Скачать: Сэмпл
-

MI

Общее
Уникальный идентификатор : 224404510445745774928896738828991590573 (0xA8D2BC93EF3E499C854DA690F197F0AD)
Полное имя : D:\Gorko.By_Flash.DVDRip-AVC.mkv
Формат : Matroska
Версия формата : Version 2
Размер файла : 1,46 Гбайт
Продолжительность : 1 ч. 36 м.
Общий поток : 2152 Кбит/сек
Дата кодирования : UTC 2013-12-05 23:05:01
Программа кодирования : mkvmerge v6.1.0 ('Old Devil') built on Mar 4 2013 09:10:42
Библиотека кодирования : libebml v1.3.0 + libmatroska v1.4.0
Видео
Идентификатор : 1
Формат : AVC
Формат/Информация : Advanced Video Codec
Профиль формата : High@L4.1
Параметр CABAC формата : Да
Параметр ReFrames формата : 10 кадров
Идентификатор кодека : V_MPEG4/ISO/AVC
Продолжительность : 1 ч. 36 м.
Битрейт : 1703 Кбит/сек
Ширина : 1024 пикселя
Высота : 576 пикселей
Соотношение сторон : 16:9
Режим частоты кадров : Постоянный
Частота кадров : 25,000 кадров/сек
Цветовое пространство : YUV
Субдискретизация насыщенности : 4:2:0
Битовая глубина : 8 бит
Тип развёртки : Прогрессивная
Бит/(Пиксели*Кадры) : 0.115
Размер потока : 1,12 Гбайт (77%)
Библиотека кодирования : x264 core 130 r2273 b3065e6
Настройки программы : cabac=1 / ref=10 / deblock=1:-3:-3 / analyse=0x3:0x133 / me=umh / subme=11 / psy=1 / psy_rd=1.00:0.20 / mixed_ref=1 / me_range=32 / chroma_me=1 / trellis=2 / 8x8dct=1 / cqm=0 / deadzone=21,11 / fast_pskip=0 / chroma_qp_offset=-3 / threads=12 / lookahead_threads=2 / sliced_threads=0 / nr=0 / decimate=0 / interlaced=0 / bluray_compat=0 / constrained_intra=0 / bframes=8 / b_pyramid=2 / b_adapt=2 / b_bias=0 / direct=3 / weightb=1 / open_gop=0 / weightp=2 / keyint=250 / keyint_min=25 / scenecut=40 / intra_refresh=0 / rc=2pass / mbtree=0 / bitrate=1703 / ratetol=1.0 / qcomp=0.60 / qpmin=0 / qpmax=69 / qpstep=4 / cplxblur=20.0 / qblur=0.5 / ip_ratio=1.40 / pb_ratio=1.30 / aq=1:1.00
Default : Да
Forced : Нет
Аудио
Идентификатор : 2
Формат : AC-3
Формат/Информация : Audio Coding 3
Расширение режима : CM (complete main)
Параметр Endianness формата : Big
Идентификатор кодека : A_AC3
Продолжительность : 1 ч. 36 м.
Вид битрейта : Постоянный
Битрейт : 448 Кбит/сек
Каналы : 6 каналов
Расположение каналов : Front: L C R, Side: L R, LFE
Частота : 48,0 КГц
Битовая глубина : 16 бит
Метод сжатия : С потерями
Размер потока : 310 Мбайт (21%)
Default : Да
Forced : Нет

Скриншоты

  • Брата Сергея Светлакова играет его родной старший брат Дмитрий.
  • Это третий фильм, в котором исполнителю главной роли — Егору Корешкову — пришлось исполнить роль жениха на свадьбе.
  • Изначально Юлия Александрова не должна была сниматься в фильме. Для запуска проекта продюсеры попросили режиссера сделать пробу, чтобы понять, как будет выглядеть использованная в фильме съемка от первого лица. Юлия взялась ассистировать мужу, а когда готовую пробу увидел один из продюсеров фильма — Тимур Бекмамбетов, он сказал, что на роль Наташи больше не нужно никого искать.
  • Фильм был снят за 23 дня.
  • Съемки проходили в Геленджике, Новороссийске и селе Дивноморском.
  • Актер Ян Цапник, как и его герой в фильме, служил в десантных войсках, именно поэтому актер быстро нашел общий язык с десантниками из новороссийской группы «Синева». В жизни актёр не носит усов, поэтому для роли ему приходилось наклеивать искусственные.
  • Кинодебютом актрисы Елены Валюшкиной, сыгравшей в этом фильме маму невесты, стал фильм «Формула любви» (1984) Марка Захарова, в мастерской которого учился режиссер Жора Крыжовников.
  • Настоящее имя режиссера Жоры Крыжовникова — Андрей Першин, и он женат на исполнительнице главной роли Юлии Александровой.
  • Танец Валентины Мазуниной под «Одиночество — сволочь» был полностью сымпровизирован. Его не было в сценарии, но режиссёру так понравилась эта сцена, что он решил добавить её в окончательный вариант.
  • Начальная сцена интервью, где Рома и Наташа рассказывают о себе, была во многом сымпровизирована. В сценарии было только несколько фраз — «Я сначала думала, что он гей», «Я работаю в газовой отрасли, но я не газовик», остальное актёры придумали сами.
Скачать

Скачать торрент!

Как скачивать? · Что такое торрент? · Рейтинг и ограничения

Сайт не распространяет и не хранит электронные версии произведений, а лишь предоставляет доступ к создаваемому пользователями каталогу ссылок на торрент-файлы, которые содержат только списки хеш-сумм

[Профиль] [ЛС]
Показать сообщения:    
Ответить на тему

Текущее время: Сегодня 17:29

Часовой пояс: GMT + 4



Вы не можете начинать темы
Вы не можете отвечать на сообщения
Вы не можете редактировать свои сообщения
Вы не можете удалять свои сообщения
Вы не можете голосовать в опросах
Вы не можете прикреплять файлы к сообщениям
Вы не можете скачивать файлы