Дежа Вю / Deja Vu (Юлиуш Махульский / Juliusz Machulski) [1989, СССР, Польша, криминальная комедия, HDRip-AVC]

Ответить на тему
 
Автор Сообщение

user ®

Стаж: 7 лет 7 месяцев

Сообщений: 20008

Пост Пост: #1 от 16-Янв-2014 19:10

[Цитировать]

Дежа Вю / Deja Vu Название: Дежа Вю
Альтернативное название: Deja Vu
Год выпуска: 1989
Страна: СССР, Польша
Жанр: криминальная комедия
Продолжительность: 01:44:01
Перевод: профессиональный (одноголосый закадровый) * на места с англоязычной речью
Оригинальная аудиодорожка: русский, английский
Русские субтитры: есть
Навигация по главам: нет-Режиссер: Юлиуш Махульский / Juliusz Machulski
В ролях: Ежи Штур, Владимир Головин, Николай Караченцов, Виктор Степанов, Галина Петрова, Олег Шкловский, Лиза Махульска, Василий Мищенко, Владимир Белоусов, Всеволод Сафонов
Описание: 20-е годы. В Америке сухой закон. Подпольные торговцы спиртным, которые понесли убытки из-за предательства некоего Микк Нича - Микиты Ничипорука, решают ему отомстить.В поисках своей жертвы наемный убийца прибывает в Одессу, где Ничипорук организовал самогонный бизнес. И тут у киллера возникают непредвиденные трудности. Одесса - это вам не Америка!..-Качество: HDRip-AVC
Формат: MKV
Видео кодек: AVC, L4.1 DXVA, crf 19.5
Аудио кодек: AC3
Видео: 960x576p; 25 fps; ~ 2379 Kbps
Аудио #1: Русский; AC3, 192 Kbps, 48 kHz, 2 ch | VO * на места с англоязычной речью
Аудио #2: Русский, английский; AC3, 192 Kbps, 48 kHz, 2 ch | Оригинал
Субтитры #1: Русские (SRT), форсированные на англоязычную речь , спасибо AMDG1000
Субтитры #2: Русские (SRT), спасибо bohdk
Дополнительная информация: Польская цифровая реставрация (реконструкция) видеоряда. В исходнике, русско-английская многоканальная аудиодорожка - "дутая" (звук только в двух фронтах), поэтому оригинальная аудиодорожка #2 получена Downmix-ом из 5.1 в стерео. Кроме того, устранен рассинхрон звука в этой дорожке (синхронизация проводилась по аудиодорожке исходника с польским закадровым переводом). Аудиодорожка #1 получена заменой фрагментов с английской речью из аудио #2 на соответствующие фрагменты с русским закадровым переводом с DVD (CP digital), спасибо Quimica.
Скачать сэмпл - http://multi-up.com/940793

MediaInfo

General
Unique ID : 254012773048888227205937540691020985900 (0xBF1914A15C58901E956392F935BBB62C)
Complete name : E:\MyRazd\Deja.vu.1989.HDRip-AVC.576p.mkv
Format : Matroska
Format version : Version 4 / Version 2
File size : 2.05 GiB
Duration : 1h 44mn
Overall bit rate : 2 819 Kbps
Movie name : Deja.vu.1989
Encoded date : UTC 2014-01-16 08:15:42
Writing application : mkvmerge v6.2.0 ('Promised Land') built on Apr 28 2013 12:22:01
Writing library : libebml v1.3.0 + libmatroska v1.4.0
Video
ID : 1
Format : AVC
Format/Info : Advanced Video Codec
Format profile : High@L4.1
Format settings, CABAC : Yes
Format settings, ReFrames : 11 frames
Codec ID : V_MPEG4/ISO/AVC
Duration : 1h 44mn
Bit rate : 2 379 Kbps
Width : 960 pixels
Height : 576 pixels
Display aspect ratio : 1.667
Frame rate : 25.000 fps
Color space : YUV
Chroma subsampling : 4:2:0
Bit depth : 8 bits
Scan type : Progressive
Bits/(Pixel*Frame) : 0.172
Stream size : 1.73 GiB (84%)
Title : Deja.vu.1989.HDRip.576p
Writing library : x264 core 133 r2334 a3ac64b
Encoding settings : cabac=1 / ref=11 / deblock=1:-2:-1 / analyse=0x3:0x133 / me=umh / subme=10 / psy=1 / psy_rd=1.00:0.10 / mixed_ref=1 / me_range=24 / chroma_me=1 / trellis=2 / 8x8dct=1 / cqm=0 / deadzone=21,11 / fast_pskip=0 / chroma_qp_offset=-3 / threads=3 / lookahead_threads=1 / sliced_threads=0 / nr=0 / decimate=1 / interlaced=0 / bluray_compat=0 / constrained_intra=0 / bframes=11 / b_pyramid=2 / b_adapt=2 / b_bias=0 / direct=3 / weightb=1 / open_gop=0 / weightp=2 / keyint=250 / keyint_min=25 / scenecut=40 / intra_refresh=0 / rc_lookahead=60 / rc=crf / mbtree=0 / crf=19.5 / qcomp=0.75 / qpmin=0 / qpmax=69 / qpstep=4 / vbv_maxrate=50000 / vbv_bufsize=50000 / crf_max=0.0 / nal_hrd=none / ip_ratio=1.40 / pb_ratio=1.30 / aq=1:0.90
Language : Russian
Default : Yes
Forced : No
Audio #1
ID : 2
Format : AC-3
Format/Info : Audio Coding 3
Mode extension : CM (complete main)
Codec ID : A_AC3
Duration : 1h 44mn
Bit rate mode : Constant
Bit rate : 192 Kbps
Channel(s) : 2 channels
Channel positions : Front: L R
Sampling rate : 48.0 KHz
Bit depth : 16 bits
Compression mode : Lossy
Stream size : 143 MiB (7%)
Title : VO
Language : Russian
Default : Yes
Forced : No
Audio #2
ID : 3
Format : AC-3
Format/Info : Audio Coding 3
Mode extension : CM (complete main)
Codec ID : A_AC3
Duration : 1h 44mn
Bit rate mode : Constant
Bit rate : 192 Kbps
Channel(s) : 2 channels
Channel positions : Front: L R
Sampling rate : 48.0 KHz
Bit depth : 16 bits
Compression mode : Lossy
Stream size : 143 MiB (7%)
Title : Original
Language : Russian
Default : No
Forced : No
Text #1
ID : 4
Format : UTF-8
Codec ID : S_TEXT/UTF8
Codec ID/Info : UTF-8 Plain Text
Title : Force
Language : Russian
Default : No
Forced : No
Text #2
ID : 5
Format : UTF-8
Codec ID : S_TEXT/UTF8
Codec ID/Info : UTF-8 Plain Text
Language : Russian
Default : No
Forced : No

encoding.log

Encoding video to: E:\MyRazd\Deja.vu.1989.HDRip.576p-19.5.mkv
x264 Q19.5 1200x720 25.000fps (156025 frames)
x264.exe: --crf 19.5 --preset placebo --level 4.1 --ref 11 --aq-strength 0.9 --deblock -2:-1 --bframes 11 --psy-rd 1.00:0.10 --qcomp 0.75 --vbv-maxrate 50000 --vbv-bufsize 50000 --subme 10 --me umh --no-mbtree --sar 1:1 --output "E:\MyRazd\Deja.vu.1989.HDRip.576p-19.5.mkv" "E:\Temp\0044.avs"
avs [info]: 960x576p 1:1 @ 25/1 fps (cfr)
x264 [info]: using SAR=1/1
x264 [info]: using cpu capabilities: MMX2 SSE2Slow SlowCTZ
x264 [info]: profile High, level 4.1
x264 [info]: frame I:1384 Avg QP:17.66 size: 69752
x264 [info]: frame P:38992 Avg QP:19.31 size: 25012
x264 [info]: frame B:115649 Avg QP:21.92 size: 7141
x264 [info]: consecutive B-frames: 1.6% 2.7% 8.3% 62.5% 14.1% 8.6% 0.9% 0.6% 0.0% 0.4% 0.0% 0.2%
x264 [info]: mb I I16..4: 7.0% 69.1% 23.9%
x264 [info]: mb P I16..4: 1.1% 12.4% 2.2% P16..4: 40.9% 24.3% 14.8% 0.6% 0.2% skip: 3.5%
x264 [info]: mb B I16..4: 0.1% 1.1% 0.3% B16..8: 41.4% 12.4% 3.4% direct: 5.3% skip:36.1% L0:36.5% L1:51.8% BI:11.7%
x264 [info]: 8x8 transform intra:76.2% inter:62.0%
x264 [info]: direct mvs spatial:100.0% temporal:0.0%
x264 [info]: coded y,uvDC,uvAC intra: 85.1% 84.3% 54.5% inter: 22.2% 24.9% 2.8%
x264 [info]: i16 v,h,dc,p: 32% 13% 11% 44%
x264 [info]: i8 v,h,dc,ddl,ddr,vr,hd,vl,hu: 12% 9% 8% 8% 12% 13% 12% 12% 13%
x264 [info]: i4 v,h,dc,ddl,ddr,vr,hd,vl,hu: 13% 9% 4% 9% 14% 14% 13% 12% 13%
x264 [info]: i8c dc,h,v,p: 40% 23% 21% 15%
x264 [info]: Weighted P-Frames: Y:2.5% UV:1.1%
x264 [info]: ref P L0: 54.6% 13.2% 17.5% 3.8% 3.2% 2.0% 1.9% 1.0% 1.0% 0.8% 0.9% 0.1% 0.0%
x264 [info]: ref B L0: 86.9% 8.2% 2.1% 0.9% 0.5% 0.4% 0.3% 0.2% 0.2% 0.1%
x264 [info]: ref B L1: 96.0% 4.0%
x264 [info]: kb/s:2432.47
x264 [total]: encoded 156025 frames, 2.19 fps, 2432.47 kb/s

Скриншоты

Скачать

Скачать торрент!

Как скачивать? · Что такое торрент? · Рейтинг и ограничения

Сайт не распространяет и не хранит электронные версии произведений, а лишь предоставляет доступ к создаваемому пользователями каталогу ссылок на торрент-файлы, которые содержат только списки хеш-сумм

[Профиль] [ЛС]
Показать сообщения:    
Ответить на тему

Текущее время: Сегодня 18:12

Часовой пояс: GMT + 4



Вы не можете начинать темы
Вы не можете отвечать на сообщения
Вы не можете редактировать свои сообщения
Вы не можете удалять свои сообщения
Вы не можете голосовать в опросах
Вы не можете прикреплять файлы к сообщениям
Вы не можете скачивать файлы