Пленница (Владимир Лерт) [2013, Триллер, WEB-DLRip]

Ответить на тему
 
Автор Сообщение

user ®

Стаж: 7 лет 7 месяцев

Сообщений: 20008

Пост Пост: #1 от 16-Янв-2014 19:10

[Цитировать]

Пленница
Жанр: Триллер
Год выпуска: 2013
Продолжительность: 01:11:32
Режиссёр: Владимир Лерт
В ролях: Ольга Олексий, Сергей Радченко, Александр Кобзарь, Виталий Иванченко, Алексей Петухов
Описание: Амбициозная деловая женщина Елена Дягилева мечтает о продвижении по карьерной лестнице, но сталкивается с неожиданным препятствием: чтобы получить долгожданное повышение, ей придется ответить на ухаживания сына владельца компании. Лена почти готова пойти на компромисс с совестью, забыв о муже, у которого в мечтах, прежде всего, уютный домашний очаг. Но случается страшное: Лену похищает серийный маньяк-убийца. В каждой жертве Родион видит свою жену Катю - пустую, холодную карьеристку, которую безумно любил. Маньяк хладнокровен и непредсказуем, его давно безуспешно разыскивает полиция. Муж Лены Иван делает все возможное, чтобы предотвратить трагедию, но перевес на стороне Родиона: жизнь жертвы может оборваться в любую секунду. В те страшные часы, что Лена провела заложницей, выслушивая убийцу, она, как в зеркале, увидела схожесть его семейной трагедии со своей. Осталось попытаться убедить Родиона, что ее запоздалое раскаяние искренно, ивозможно, его сердце дрогнет, и что-то изменится в нем?
Сзмпл: http://www.sendspace.com/file/pu3jpu
Качество видео: WEB-DLRip
Формат видео: AVI
Видео: 720x400 (1.80:1), 25 fps, XviD build 50 ~1938 kbps avg, 0.27 bit/pixel
Аудио: 44.1 kHz, AC3 Dolby Digital, 2/0 (L,R) ch, ~192 kbps

MediaInfo

E:\Отклонение\Aberration.2013.WЕB-DLRip.avi
General
Complete name : E:\Отклонение\Aberration.2013.WЕB-DLRip.avi
Format : AVI
Format/Info : Audio Video Interleave
File size : 1.62 GiB
Duration : 1h 24mn
Overall bit rate : 2 735 Kbps
Writing application : VirtualDubMod 1.5.10.2 (build 2540/release)
Writing library : VirtualDubMod build 2540/release
Video #0
ID : 0
Format : MPEG-4 Visual
Format profile : Advanced Simple@L5
Format settings, BVOP : 2
Format settings, QPel : No
Format settings, GMC : No warppoints
Format settings, Matrix : Default (H.263)
Codec ID : XVID
Codec ID/Hint : XviD
Duration : 1h 24mn
Bit rate : 1 697 Kbps
Width : 720 pixels
Height : 304 pixels
Display aspect ratio : 2.35:1
Frame rate : 23.976 fps
Color space : YUV
Chroma subsampling : 4:2:0
Bit depth : 8 bits
Scan type : Progressive
Compression mode : Lossy
Bits/(Pixel*Frame) : 0.323
Stream size : 1.00 GiB (62%)
Writing library : XviD 1.2.1 (UTC 2008-12-04)
Audio #1
ID : 1
Format : AC-3
Format/Info : Audio Coding 3
Mode extension : CM (complete main)
Codec ID : 2000
Duration : 1h 24mn
Bit rate mode : Constant
Bit rate : 640 Kbps
Channel(s) : 6 channels
Channel positions : Front: L C R, Side: L R, LFE
Sampling rate : 48.0 KHz
Bit depth : 16 bits
Compression mode : Lossy
Stream size : 388 MiB (23%)
Alignment : Split accross interleaves
Interleave, duration : 42 ms (1.00 video frame)
Interleave, preload duration : 500 ms
Audio #2
ID : 2
Format : AC-3
Format/Info : Audio Coding 3
Mode extension : CM (complete main)
Codec ID : 2000
Duration : 1h 24mn
Bit rate mode : Constant
Bit rate : 384 Kbps
Channel(s) : 6 channels
Channel positions : Front: L C R, Side: L R, LFE
Sampling rate : 48.0 KHz
Bit depth : 16 bits
Compression mode : Lossy
Stream size : 233 MiB (14%)
Alignment : Split accross interleaves
Interleave, duration : 42 ms (1.00 video frame)
Interleave, preload duration : 500 ms

Скриншот c названием фильма

Скриншоты

Скачать

Скачать торрент!

Как скачивать? · Что такое торрент? · Рейтинг и ограничения

Сайт не распространяет и не хранит электронные версии произведений, а лишь предоставляет доступ к создаваемому пользователями каталогу ссылок на торрент-файлы, которые содержат только списки хеш-сумм

[Профиль] [ЛС]
Показать сообщения:    
Ответить на тему

Текущее время: Сегодня 22:36

Часовой пояс: GMT + 4



Вы не можете начинать темы
Вы не можете отвечать на сообщения
Вы не можете редактировать свои сообщения
Вы не можете удалять свои сообщения
Вы не можете голосовать в опросах
Вы не можете прикреплять файлы к сообщениям
Вы не можете скачивать файлы