Облачно... 2: Месть ГМО / Cloudy with a Chance of Meatballs 2 (Коуди Камерон, Крис Пирн / Cody Cameron, Kris Pearn) [2013, мультфильм, фантастика, комедия, семейный, BDRip - AVC (720p)] Dub + Eng DTS

Ответить на тему
 
Автор Сообщение

user ®

Стаж: 12 лет

Сообщений: 15145

Пост Пост: #1 от 16-Янв-2014 01:30

[Цитировать]

Облачно... 2: Месть ГМО / Cloudy with a Chance of Meatballs 2
Страна: США
Жанр: мультфильм, фантастика, комедия, семейный
Продолжительность: 01:34:50
Год выпуска: 2013
Перевод: Профессиональный (дублированный) [Чистый звук]
Русские субтитры: нет
Режиссёр: Коуди Камерон, Крис Пирн / Cody Cameron, Kris Pearn
Роли озвучивали: Билл Хейдер, Анна Фэрис, Джеймс Каан, Уилл Форте, Энди Сэмберг, Бенджамин Брэтт, Нил Патрик Харрис, Терри Крюс, Кристен Шол, Коуди Камерон
Описание: Все жители острова Поплавок покинули родной дом после событий предыдущего мультфильма. Главный герой Флинт Локвуд теперь работает в компании The Live Corp на своего кумира Честера. Но ему придется оставить свой пост когда он узнает, что его печально-известная машина все ещё работает и производит на свет опасных гибридов. Флинту предстоит ещё раз спасти мир и не дать коварной машине распространить громадную еду по всему миру.
Семпл: http://multi-up.com/940535
Качество: BDRip 720p [CHD]
Формат: MKV (x264)
Видео: 1280x534 (2.40:1), 23.976 fps, AVC - 3778 kbps avg, 0.231 bit/pixel
Аудио: Russian: AC3, 448 kb/s (6 ch)
Аудио 2: English: DTS 1509 kb/s (6 ch)
Субтитры: Отсутствуют

Подробные технические данные

ОбщееУникальный идентификатор : 237084418334885493344038933622033611097 (0xB25CCC4DC884D9138735D3EBB4A1F959)Полное имя : D:\Торренты\Oblachno.Mest.GMO.2013.D.BDRip.720p.mkvФормат : MatroskaВерсия формата : Version 4 / Version 2Размер файла : 3,80 ГбайтПродолжительность : 1 ч. 34 м.Общий поток : 5738 Кбит/секДата кодирования : UTC 2014-01-14 17:50:45Программа кодирования : mkvmerge v6.5.0 ('Isn't she lovely') built on Oct 20 2013 12:50:05Библиотека кодирования : libebml v1.3.0 + libmatroska v1.4.1
ВидеоИдентификатор : 1Формат : AVCФормат/Информация : Advanced Video CodecПрофиль формата : High@L4.1Параметр CABAC формата : ДаПараметр ReFrames формата : 10 кадровИдентификатор кодека : V_MPEG4/ISO/AVCПродолжительность : 1 ч. 34 м.Битрейт : 3778 Кбит/секШирина : 1280 пикселейВысота : 534 пикселяСоотношение сторон : 2,40:1Режим частоты кадров : ПостоянныйЧастота кадров : 23,976 кадра/секЦветовое пространство : YUVСубдискретизация насыщенности : 4:2:0Битовая глубина : 8 битТип развёртки : ПрогрессивнаяБит/(Пиксели*Кадры) : 0.231Размер потока : 2,43 Гбайт (64%)Заголовок : Cloudy.with.a.Chance.of.Meatballs.2.2013Библиотека кодирования : x264 core 138 r2356 a1d3d17Настройки программы : cabac=1 / ref=10 / deblock=1:-3:-3 / analyse=0x3:0x113 / me=umh / subme=10 / psy=1 / psy_rd=1.00:0.05 / mixed_ref=1 / me_range=32 / chroma_me=1 / trellis=2 / 8x8dct=1 / cqm=0 / deadzone=21,11 / fast_pskip=0 / chroma_qp_offset=-2 / threads=18 / lookahead_threads=1 / sliced_threads=0 / nr=0 / decimate=1 / interlaced=0 / bluray_compat=0 / constrained_intra=0 / bframes=4 / b_pyramid=2 / b_adapt=2 / b_bias=0 / direct=3 / weightb=1 / open_gop=0 / weightp=2 / keyint=250 / keyint_min=23 / scenecut=40 / intra_refresh=0 / rc=2pass / mbtree=0 / bitrate=3778 / ratetol=1.0 / qcomp=0.70 / qpmin=0 / qpmax=69 / qpstep=4 / cplxblur=20.0 / qblur=0.5 / ip_ratio=1.40 / pb_ratio=1.30 / aq=2:1.00Язык : EnglishDefault : ДаForced : Нет
Аудио #1Идентификатор : 2Формат : AC-3Формат/Информация : Audio Coding 3Расширение режима : CM (complete main)Параметр Endianness формата : BigИдентификатор кодека : A_AC3Продолжительность : 1 ч. 34 м.Вид битрейта : ПостоянныйБитрейт : 448 Кбит/секКаналы : 6 каналовРасположение каналов : Front: L C R, Side: L R, LFEЧастота : 48,0 КГцБитовая глубина : 16 битМетод сжатия : С потерямиРазмер потока : 304 Мбайт (8%)Default : ДаForced : Нет
Аудио #2Идентификатор : 3Формат : DTSФормат/Информация : Digital Theater SystemsРежим : 16Параметр Endianness формата : BigИдентификатор кодека : A_DTSПродолжительность : 1 ч. 34 м.Вид битрейта : ПостоянныйБитрейт : 1509 Кбит/секКаналы : 6 каналовРасположение каналов : Front: L C R, Side: L R, LFEЧастота : 48,0 КГцБитовая глубина : 24 битМетод сжатия : С потерямиРазмер потока : 1024 Мбайт (26%)Заголовок : DTS-CORE 1536K ENGЯзык : EnglishDefault : НетForced : Нет

Скриншоты

Скачать

Скачать торрент! Облачно... 2: Месть ГМО / Cloudy with a Chance of Meatballs 2 (Коуди Камерон, Крис Пирн / Cody Cameron, Kris Pearn) [2013, мультфильм, фантастика, комедия, семейный, BDRip - AVC (720p)] Dub + Eng DTS

Как скачивать? · Что такое торрент? · Рейтинг и ограничения

Сайт не распространяет и не хранит электронные версии произведений, а лишь предоставляет доступ к создаваемому пользователями каталогу ссылок на торрент-файлы, которые содержат только списки хеш-сумм

[Профиль] [ЛС]
Показать сообщения:    
Ответить на тему

Текущее время: Сегодня 11:30

Часовой пояс: GMT + 4



Вы не можете начинать темы
Вы не можете отвечать на сообщения
Вы не можете редактировать свои сообщения
Вы не можете удалять свои сообщения
Вы не можете голосовать в опросах
Вы не можете прикреплять файлы к сообщениям
Вы не можете скачивать файлы