Король зомби / The Zombie King (Эйдан Белизейр) [2013 г., Ужасы, комедия, HDRip] НТВ+

Ответить на тему
 
Автор Сообщение

LORN-V ®

Пол:

Стаж: 4 года 6 месяцев

Сообщений: 1186

Откуда: Munchen

Пост Пост: #1 от 15-Янв-2014 22:08

[Цитировать]

Король зомби / The Zombie King -Основная информация:
Год выпуска: 2013
Страна: Великобритания
Жанр: Ужасы, комедия
Продолжительность: 01:36:20
Перевод: Профессиональный многоголосый [НТВ+]
Субтитры: Нет
Режиссер: Эйдан Белизейр-В ролях:
Эдвард Ферлонг, Кори Фельдман, Джордж МакКласки, Дэвид МакКлелланд, Майкл Гамарано, Ребекка-Клер Эванс, Дженнифер Чиппиндейл, Себ Кастанг, Джон Кэмплинг, Тимоти Оуэн-Описание:
Сэмюэль Петерс вполне обычный человек, который пытается использовать магию вуду, чтобы вернуть к жизни свою умершую жену. Вскоре он неожиданно сталкивается с Богом зла Калфу, с которым заключает договор об уничтожении преисподней с воцарением хаоса на земле. Взамен он станет Королем Зомби и вернется на землю со своей покойной женой для вечной жизни.-Семпл-Доп. информация:
Качество: HDRip
Формат: AVI
Видео кодек: XviD
Аудио кодек: AC3
Видео: 1829 kb/s, 720x304, 23.976 fps
Аудио: AC3, 192 kb/s (2 ch), 48 Кгц

MI:

Общее
Полное имя                               : D:\Torrent_DviX\Korolj.zombi.2013.P.HDRip.1400Mb_.avi
Формат                                   : AVI
Формат/Информация                        : Audio Video Interleave
Размер файла                             : 1,37 Гбайт
Продолжительность                        : 1 ч. 36 м.
Общий поток                              : 2031 Кбит/сек
Программа кодирования                    : VirtualDubMod 1.5.10.2 (build 2540/release)
Библиотека кодирования                   : VirtualDubMod build 2540/release
Видео
Идентификатор                            : 0
Формат                                   : MPEG-4 Visual
Профиль формата                          : Advanced Simple@L5
Параметр BVOP формата                    : 2
Параметр QPel формата                    : Нет
Параметр GMC формата                     : Без точки перехода
Параметр матрицы формата                 : Default (MPEG)
Идентификатор кодека                     : XVID
Идентификатор кодека/Подсказка           : XviD
Продолжительность                        : 1 ч. 36 м.
Битрейт                                  : 1830 Кбит/сек
Ширина                                   : 720 пикселей
Высота                                   : 304 пикселя
Соотношение сторон                       : 2,35:1
Частота кадров                           : 23,976 кадра/сек
Цветовое пространство                    : YUV
Субдискретизация насыщенности            : 4:2:0
Битовая глубина                          : 8 бит
Тип развёртки                            : Прогрессивная
Метод сжатия                             : С потерями
Бит/(Пиксели*Кадры)                      : 0.349
Размер потока                            : 1,23 Гбайт (90%)
Библиотека кодирования                   : XviD 1.2.1 (UTC 2008-12-04)
Аудио
Идентификатор                            : 1
Формат                                   : AC-3
Формат/Информация                        : Audio Coding 3
Расширение режима                        : CM (complete main)
Параметр Endianness формата              : Big
Идентификатор кодека                     : 2000
Продолжительность                        : 1 ч. 36 м.
Вид битрейта                             : Постоянный
Битрейт                                  : 192 Кбит/сек
Каналы                                   : 2 канала
Расположение каналов                     : Front: L R
Частота                                  : 48,0 КГц
Битовая глубина                          : 16 бит
Метод сжатия                             : С потерями
Размер потока                            : 132 Мбайт (9%)
Выравнивание                             : Разделение по промежуткам
Продолжительность промежутка             : 42  мс. (1,00 видеокадр)
Время предзагрузки промежутка            : 500  мс.

Скриншоты

Скачать

Скачать торрент!

Как скачивать? · Что такое торрент? · Рейтинг и ограничения

Сайт не распространяет и не хранит электронные версии произведений, а лишь предоставляет доступ к создаваемому пользователями каталогу ссылок на торрент-файлы, которые содержат только списки хеш-сумм


_________________
[Профиль] [ЛС]

WorldCreator

Стаж: 3 года 2 месяца

Сообщений: 172

Пост Пост: #2 от 27-Янв-2014 01:32 (спустя 11 дней)

[Цитировать]

...Что бы этому фильму делать в разделе отечественного кино?
[Профиль] [ЛС]

Пост Пост: #3 от 27-Янв-2014 01:43 (спустя 10 минут)

Топик был перенесен из форума Новые фильмы в форум Новинки кино
admin
 
Показать сообщения:    
Ответить на тему

Текущее время: Сегодня 08:56

Часовой пояс: GMT + 4



Вы не можете начинать темы
Вы не можете отвечать на сообщения
Вы не можете редактировать свои сообщения
Вы не можете удалять свои сообщения
Вы не можете голосовать в опросах
Вы не можете прикреплять файлы к сообщениям
Вы не можете скачивать файлы