Из преисподней / Инферно / Out of Inferno (Оксид Пан / Oxide Pang, Дэнни Пан / Danny Pang) [2013, Китай, Экшен, Драма, HDRip] VO

Ответить на тему
 
Автор Сообщение

user ®

Стаж: 11 лет

Сообщений: 15151

Пост Пост: #1 от 15-Янв-2014 08:20

[Цитировать]

Из преисподней / Инферно / Out of Inferno
Год выпуска: 2013
Страна: Китай
Жанр: Экшен, Драма
Продолжительность: 01:47:07
Перевод: Любительский (одноголосый, закадровый) Den904
Перевод: chup
Работа со звуком: Гуннлауг
Режиссёр: Оксид Пан / Oxide Pang, Дэнни Пан / Danny Pang
В ролях: Лау Чинг Ван/ Lau Ching Wan, Луис Ку / Louis Koo, Анжелика Ли / Angelica Lee, Чэнь Си Ченг/ Chen Si Cheng, Натали Тонг / Natalie Tong, Сиу-Фай Чун / Siu-Fai Cheung, Кристалл Ли / Crystal Lee, Марк Ма / Marc Ma...
Описание: В крупном торговом центре начинается пожар . Огромное количество людей, ставшие заложниками огня, пытаются дожить до прибытия пожарных . Пожарные, рискуя жизнями, спасают людей... в то время как пожар разгорается все сильнее по вине хозяина ТРЦ , хранившего на верхних этажах химические отходы.
Релиз группы:

Автор Рипа: Васька Куролесов
Исходник: Out.Of.Inferno.2013.BluRay.720p.DTS.CANTO.x264-CHD (1).mkv
Качество: HDRip
Формат: AVI
Видео кодек: Xvid
Аудио кодек: MP3
Видео: Xvid, 720x400 (1.80:1), 16:9, 24.000, 1750 kb/s, 0.253 bits/pixel
Аудио: MP3, 48 kHz, 2 channels, 192 kbps

Скриншоты

MI

Complete name                            : Out.Of.Inferno.2013.HDRip.avi
Format                                   : AVI
Format/Info                              : Audio Video Interleave
File size                                : 1.46 GiB
Duration                                 : 1h 47mn
Overall bit rate                         : 1 948 Kbps
Video
ID                                       : 0
Format                                   : MPEG-4 Visual
Format profile                           : Advanced Simple@L5
Format settings, BVOP                    : 2
Format settings, QPel                    : No
Format settings, GMC                     : No warppoints
Format settings, Matrix                  : Default (H.263)
Muxing mode                              : Packed bitstream
Codec ID                                 : XVID
Codec ID/Hint                            : XviD
Duration                                 : 1h 47mn
Bit rate                                 : 1 747 Kbps
Width                                    : 720 pixels
Height                                   : 400 pixels
Display aspect ratio                     : 16:9
Frame rate                               : 24.000 fps
Color space                              : YUV
Chroma subsampling                       : 4:2:0
Bit depth                                : 8 bits
Scan type                                : Progressive
Compression mode                         : Lossy
Bits/(Pixel*Frame)                       : 0.253
Stream size                              : 1.31 GiB (90%)
Writing library                          : XviD 64
Audio
ID                                       : 1
Format                                   : MPEG Audio
Format version                           : Version 1
Format profile                           : Layer 3
Codec ID                                 : 55
Codec ID/Hint                            : MP3
Duration                                 : 1h 47mn
Bit rate mode                            : Constant
Bit rate                                 : 192 Kbps
Channel(s)                               : 2 channels
Sampling rate                            : 48.0 KHz
Compression mode                         : Lossy
Stream size                              : 147 MiB (10%)
Alignment                                : Split accross interleaves
Interleave, duration                     : 43 ms (1.03 video frame)
Writing library                          : LAMELAME_MAJOR_VERSI
Скачать

Скачать торрент! Из преисподней / Инферно / Out of Inferno (Оксид Пан / Oxide Pang, Дэнни Пан / Danny Pang) [2013, Китай, Экшен, Драма, HDRip] VO

Как скачивать? · Что такое торрент? · Рейтинг и ограничения

Сайт не распространяет и не хранит электронные версии произведений, а лишь предоставляет доступ к создаваемому пользователями каталогу ссылок на торрент-файлы, которые содержат только списки хеш-сумм

[Профиль] [ЛС]
Показать сообщения:    
Ответить на тему

Текущее время: Сегодня 06:14

Часовой пояс: GMT + 4



Вы не можете начинать темы
Вы не можете отвечать на сообщения
Вы не можете редактировать свои сообщения
Вы не можете удалять свои сообщения
Вы не можете голосовать в опросах
Вы не можете прикреплять файлы к сообщениям
Вы не можете скачивать файлы