Офицеры (Владимир Роговой) [1971, драма, мелодрама, BDRip-AVC] - цветная версия

Ответить на тему
 
Автор Сообщение

user ®

Стаж: 7 лет 7 месяцев

Сообщений: 20008

Пост Пост: #1 от 15-Янв-2014 05:10

[Цитировать]

Офицеры
Жанр: драма, мелодрама
Год выпуска: 1971
Продолжительность: 01:35:26
Режиссёр: Владимир Роговой
В ролях: Георгий Юматов, Василий Лановой, Алина Покровская, Александр Воеводин, Наталья Рычагова, Владимир Дружников, Андрей Громов, Юрий Сорокин, Шаджан Акмухамедов, Евгений Весник
Описание: Действие этого фильма охватывает довольно большой период - с 1920 по 1970 годы. В центре внимания авторов - жизнь одной семьи - Алексея Трофимова (в первых кадрах фильма - юного курсанта, а в конце - убеленного сединами генерала), жены его Любаши, их сына Георгия и, наконец, внука Ивана. Но фильм нельзя назвать просто семейной хроникой. Помимо принадлежности к одной семье, у героев есть еще одна особенность, роднящая их друг с другом. Все они - военнослужащие. И военнослужащие не просто по необходимости, по стечению обстоятельств, но и по призванию, которому они верны до конца и которое, как эстафету, передают своим детям и внукам. Есть такая профессия - Родину защищать.
Качество видео: BDRip-AVC
Формат видео: MKV
Видео: 1152x480, (2,40:1), 24.000 кадр/с, 3499 Кбит/с
Аудио: AC3, 48 кГц, 6 ch, 448 Кбит/с

MediaInfo

raw [info]: 1152x480p 1:1 @ 24/1 fps (cfr)
x264 [info]: using SAR=1/1
x264 [info]: using cpu capabilities: MMX2 SSE2Fast SSSE3 SSE4.2 AVX
x264 [info]: profile High, level 4.1
x264 [info]: frame I:712 Avg QP:16.55 size: 95181
x264 [info]: frame P:32485 Avg QP:19.78 size: 37502
x264 [info]: frame B:104227 Avg QP:21.88 size: 11692-Общее
Уникальный идентификатор : 220857882618461989553462310889094700923 (0xA627AE535250128380D8370D046CDF7B)
Полное имя : D:\Офицеры_1971-BDRip-AVC-цветная версия.mkv
Формат : Matroska
Версия формата : Version 2
Размер файла : 2,63 Гбайт
Продолжительность : 1 ч. 35 м.
Общий поток : 3949 Кбит/сек
Дата кодирования : UTC 2014-01-14 22:05:22
Программа кодирования : mkvmerge v5.1.0 ('And so it goes') built on Nov 28 2011 23:58:28
Библиотека кодирования : libebml v1.2.3 + libmatroska v1.3.0
Видео
Идентификатор : 1
Формат : AVC
Формат/Информация : Advanced Video Codec
Профиль формата : High@L4.1
Параметр CABAC формата : Да
Параметр ReFrames формата : 15 кадров
Идентификатор кодека : V_MPEG4/ISO/AVC
Продолжительность : 1 ч. 35 м.
Битрейт : 3500 Кбит/сек
Ширина : 1152 пикселя
Высота : 480 пикселей
Соотношение сторон : 2,40:1
Режим частоты кадров : Постоянный
Частота кадров : 24,000 кадра/сек
Цветовое пространство : YUV
Субдискретизация насыщенности : 4:2:0
Битовая глубина : 8 бит
Тип развёртки : Прогрессивная
Бит/(Пиксели*Кадры) : 0.264
Размер потока : 2,28 Гбайт (87%)
Библиотека кодирования : x264 core 133 r2334 a3ac64b
Настройки программы : cabac=1 / ref=15 / deblock=1:-2:-2 / analyse=0x3:0x113 / me=umh / subme=11 / psy=1 / psy_rd=1.00:0.05 / mixed_ref=1 / me_range=24 / chroma_me=1 / trellis=2 / 8x8dct=1 / cqm=0 / deadzone=21,11 / fast_pskip=0 / chroma_qp_offset=-3 / threads=12 / lookahead_threads=2 / sliced_threads=0 / nr=0 / decimate=0 / interlaced=0 / bluray_compat=0 / constrained_intra=0 / bframes=8 / b_pyramid=2 / b_adapt=2 / b_bias=0 / direct=3 / weightb=1 / open_gop=0 / weightp=2 / keyint=250 / keyint_min=24 / scenecut=40 / intra_refresh=0 / rc_lookahead=60 / rc=2pass / mbtree=1 / bitrate=3500 / ratetol=1.0 / qcomp=0.65 / qpmin=0 / qpmax=41 / qpstep=4 / cplxblur=20.0 / qblur=0.5 / ip_ratio=1.35 / aq=1:1.00
Язык : English
Default : Да
Forced : Нет
Основные цвета : BT.709
Характеристики трансфера : BT.709
Коэффициенты матрицы : BT.709
Аудио
Идентификатор : 2
Формат : AC-3
Формат/Информация : Audio Coding 3
Расширение режима : CM (complete main)
Параметр Endianness формата : Big
Идентификатор кодека : A_AC3
Продолжительность : 1 ч. 35 м.
Вид битрейта : Постоянный
Битрейт : 448 Кбит/сек
Каналы : 6 каналов
Расположение каналов : Front: L C R, Side: L R, LFE
Частота : 48,0 КГц
Битовая глубина : 16 бит
Метод сжатия : С потерями
Размер потока : 306 Мбайт (11%)
Язык : Russian
Default : Да
Forced : Нет
Скачать

Скачать торрент!

Как скачивать? · Что такое торрент? · Рейтинг и ограничения

Сайт не распространяет и не хранит электронные версии произведений, а лишь предоставляет доступ к создаваемому пользователями каталогу ссылок на торрент-файлы, которые содержат только списки хеш-сумм

[Профиль] [ЛС]
Показать сообщения:    
Ответить на тему

Текущее время: Сегодня 06:12

Часовой пояс: GMT + 4



Вы не можете начинать темы
Вы не можете отвечать на сообщения
Вы не можете редактировать свои сообщения
Вы не можете удалять свои сообщения
Вы не можете голосовать в опросах
Вы не можете прикреплять файлы к сообщениям
Вы не можете скачивать файлы