Невеста моего друга (Дмитрий Лактионов) [2012, Мелодрама, WEB-DLRip]

Ответить на тему
 
Автор Сообщение

user ®

Стаж: 7 лет 7 месяцев

Сообщений: 20008

Пост Пост: #1 от 14-Янв-2014 17:35

[Цитировать]

Невеста моего друга
Жанр: Мелодрама
Год выпуска: 2012
Продолжительность: 01:41:07
Режиссёр: Дмитрий Лактионов
В ролях: Любава Грешнова, Денис Роднянский, Алексей Смолка, Марина Богатова, Михаил Пшеничный, Яна Соболевская, Сергей Газаров, Лариса Кадочникова, Вячеслав Сланко, Александра Попова (II), Вячеслав Шеховцов, Заза Чантурия
Описание: Бизнесмен Игорь Ветров уезжает в длительную командировку. Ко дню рождения своей девушки Лидии он отправляет ей курьером кольцо, чтобы по возвращении отпраздновать помолвку. Но по недоразумению кольцо попадает к соседке – избалованной вниманием певице. К приезду Ветрова девушка, отчаявшись ждать, принимает предложение их общего друга Александра, который ничего не знал о её романе с Игорем! Ветров из ревности знакомит друзей со своей фиктивной невестой Марией. Маша, быстро входит в игру: но в тоже время она понимает, что глупо не воспользоваться ситуацией, если рядом такой завидный жених…хотя, возможно кто-то найдёт своё счастье в этом странном любовном четырёхугольнике?
Сэмпл: http://sendfile.su/922611
Качество видео: WEB-DLRip
Формат видео: AVI
Видео: 720x400 (1.80:1), 25 fps, XviD MPEG-4, 1858 kbps avg, 0.26 bit/pixel
Аудио: 44.1 kHz, AC3 Dolby Digital, 2/0 (L,R) ch, 192 kbps

MediaInfo

Nevesta.moego.druga.2012.WEB-DLRip.Generalfilm.avi
Format : AVI
Format/Info : Audio Video Interleave
File size : 1.46 GiB
Duration : 1h 41mn
Overall bit rate : 2 061 Kbps
Writing application : VirtualDubMod 1.5.10.3 | www.virtualdub-fr.org || (build 2550/release)
Writing library : VirtualDubMod build 2550/release
Video #0
ID : 0
Format : MPEG-4 Visual
Format profile : Advanced Simple@L5
Format settings, BVOP : 1
Format settings, QPel : No
Format settings, GMC : No warppoints
Format settings, Matrix : Default (MPEG)
Codec ID : XVID
Codec ID/Hint : XviD
Duration : 1h 41mn
Bit rate : 1 859 Kbps
Width : 720 pixels
Height : 400 pixels
Display aspect ratio : 16:9
Frame rate : 25.000 fps
Color space : YUV
Chroma subsampling : 4:2:0
Bit depth : 8 bits
Scan type : Progressive
Compression mode : Lossy
Bits/(Pixel*Frame) : 0.258
Stream size : 1.31 GiB (90%)
Writing library : XviD 64
Audio #1
ID : 1
Format : AC-3
Format/Info : Audio Coding 3
Mode extension : CM (complete main)
Codec ID : 2000
Duration : 1h 41mn
Bit rate mode : Constant
Bit rate : 192 Kbps
Channel(s) : 2 channels
Channel positions : Front: L R
Sampling rate : 44.1 KHz
Bit depth : 16 bits
Compression mode : Lossy
Delay relative to video : 139ms
Stream size : 139 MiB (9%)
Alignment : Split accross interleaves
Interleave, duration : 40 ms (1.00 video frame)
Interleave, preload duration : 500 ms

Скриншот c названием фильма

Скриншоты

Скачать

Скачать торрент!

Как скачивать? · Что такое торрент? · Рейтинг и ограничения

Сайт не распространяет и не хранит электронные версии произведений, а лишь предоставляет доступ к создаваемому пользователями каталогу ссылок на торрент-файлы, которые содержат только списки хеш-сумм

[Профиль] [ЛС]
Показать сообщения:    
Ответить на тему

Текущее время: Сегодня 06:24

Часовой пояс: GMT + 4



Вы не можете начинать темы
Вы не можете отвечать на сообщения
Вы не можете редактировать свои сообщения
Вы не можете удалять свои сообщения
Вы не можете голосовать в опросах
Вы не можете прикреплять файлы к сообщениям
Вы не можете скачивать файлы