Сталинград (Фёдор Бондарчук) [2013, Военный, драма, боевик, BDRip 720p]

Ответить на тему
 
Автор Сообщение

user ®

Стаж: 7 лет 7 месяцев

Сообщений: 20008

Пост Пост: #1 от 14-Янв-2014 02:50

[Цитировать]

Сталинград
Страна: Россия / Арт Пикчерс Студия, Нон-стоп Продакшн
Жанр: Военный, драма, боевик
Год выпуска: 2013
Продолжительность: 02:10:48
Перевод: Не требуется
Cубтитры: нет
Режиссер: Фёдор Бондарчук
В ролях: Мария Смольникова, Яна Студилина, Пётр Фёдоров, Томас Кречман, Сергей Бондарчук, Дмитрий Лысенков, Андрей Смоляков, Алексей Барабаш, Олег Волку, Хайнер Лаутербах
Описание: 1942-й год. Сталинград. Советские войска планируют контрнаступление на немецкие части, занявшие правый берег Волги. Наступление сорвано. Лишь разведчикам под командованием капитана Громова удается перебраться на другой берег и закрепиться в одном из домов. Им дан приказ удержать его любой ценой. Кроме нескольких чудом уцелевших советских солдат они находят в доме его последнюю жительницу — 19-летнюю Катю.Приказ отбить дом, захваченный противником, получает немецкий офицер Кан. На фоне одного из самых кровопролитных сражений в истории человечества разворачиваются истории любви и драматического противостояния характеров.

Релиз от:
Автор рипа: potroks
Тип релиза: BDRip 720p
Контейнер: MKV
Видео: x.264, 1280x526 (2,40:1), 23,976 fps, 4172 Кbps, 0.258 bit/pixel
Аудио: 48 kHz, AC3 Dolby Digital, 3/2 (L,C,R,l,r) + LFE ch, 640.00 kbps

MediaInfo

Общее
Уникальный идентификатор : 225271500033291002363062451109107369176 (0xA979B676FCF50BAB968E9F60F13884D8)
Полное имя : Stalingrad.2013.RUS.BDRip.720p.-HELLYWOOD.mkv
Формат : Matroska
Версия формата : Version 4 / Version 2
Размер файла : 4,40 Гбайт
Продолжительность : 2 ч. 10 м.
Общий поток : 4813 Кбит/сек
Название фильма : HELLYWOOD - rip by potroks
Дата кодирования : UTC 2013-12-28 08:23:21
Программа кодирования : mkvmerge v5.9.0 ('On The Loose') built on Dec 15 2012 16:39:58
Библиотека кодирования : libebml v1.3.0 + libmatroska v1.4.0
Видео
Идентификатор : 1
Формат : AVC
Формат/Информация : Advanced Video Codec
Профиль формата : High@L4.1
Параметр CABAC формата : Да
Параметр ReFrames формата : 9 кадров
Идентификатор кодека : V_MPEG4/ISO/AVC
Продолжительность : 2 ч. 10 м.
Битрейт : 4172 Кбит/сек
Ширина : 1280 пикселей
Высота : 526 пикселей
Соотношение сторон : 2,40:1
Режим частоты кадров : Постоянный
Частота кадров : 23,976 кадра/сек
Цветовое пространство : YUV
Субдискретизация насыщенности : 4:2:0
Битовая глубина : 8 бит
Тип развёртки : Прогрессивная
Бит/(Пиксели*Кадры) : 0.258
Размер потока : 3,73 Гбайт (85%)
Заголовок : Сталинград
Библиотека кодирования : x264 core 130 r2273 b3065e6
Настройки программы : cabac=1 / ref=9 / deblock=1:-2:-2 / analyse=0x3:0x133 / me=umh / subme=11 / psy=1 / psy_rd=1.03:0.00 / mixed_ref=1 / me_range=32 / chroma_me=1 / trellis=2 / 8x8dct=1 / cqm=0 / deadzone=21,11 / fast_pskip=0 / chroma_qp_offset=-2 / threads=9 / lookahead_threads=8 / sliced_threads=0 / nr=0 / decimate=0 / interlaced=0 / bluray_compat=0 / constrained_intra=0 / bframes=10 / b_pyramid=2 / b_adapt=2 / b_bias=0 / direct=3 / weightb=1 / open_gop=0 / weightp=2 / keyint=250 / keyint_min=23 / scenecut=40 / intra_refresh=0 / rc_lookahead=60 / rc=2pass / mbtree=0 / bitrate=4172 / ratetol=1.0 / qcomp=0.70 / qpmin=0 / qpmax=69 / qpstep=4 / cplxblur=20.0 / qblur=0.5 / vbv_maxrate=50000 / vbv_bufsize=62500 / nal_hrd=none / ip_ratio=1.35 / pb_ratio=1.25 / aq=1:0.70
Язык : Russian
Default : Да
Forced : Нет
Аудио
Идентификатор : 2
Формат : AC-3
Формат/Информация : Audio Coding 3
Расширение режима : CM (complete main)
Параметр Endianness формата : Big
Идентификатор кодека : A_AC3
Продолжительность : 2 ч. 10 м.
Вид битрейта : Постоянный
Битрейт : 640 Кбит/сек
Каналы : 6 каналов
Расположение каналов : Front: L C R, Side: L R, LFE
Частота : 48,0 КГц
Битовая глубина : 16 бит
Метод сжатия : С потерями
Размер потока : 599 Мбайт (13%)
Заголовок : DD 5.1 @ 640 kbps
Язык : Russian
Default : Да
Forced : Нет
Меню
00:00:00.000 : en:(01)00:00:00:000
00:15:37.436 : en:(02)00:15:37:436
00:31:59.334 : en:(03)00:31:59:334
00:46:05.888 : en:(04)00:46:05:888
01:03:22.048 : en:(05)01:03:22:048
01:20:44.840 : en:(06)01:20:44:840
01:35:53.164 : en:(07)01:35:53:164
01:51:11.790 : en:(08)01:51:11:790
02:10:48.674 : en:(09)02:10:48:674

log@x.264

x264 [info]: frame I:1199 Avg QP:14.47 size:122631
x264 [info]: frame P:42197 Avg QP:16.92 size: 44549
x264 [info]: frame B:144783 Avg QP:18.55 size: 14268
x264 [info]: consecutive B-frames: 2.3% 5.1% 8.7% 13.7% 11.4% 53.0% 3.4% 0.7% 1.1% 0.2% 0.2%
x264 [info]: mb I I16..4: 2.7% 78.3% 19.0%
x264 [info]: mb P I16..4: 0.7% 8.7% 1.2% P16..4: 28.9% 35.1% 19.2% 3.9% 0.4% skip: 1.8%
x264 [info]: mb B I16..4: 0.1% 0.8% 0.2% B16..8: 33.8% 24.3% 5.2% direct: 8.0% skip:27.6% L0:39.5% L1:42.1% BI:18.3%
x264 [info]: 8x8 transform intra:79.4% inter:47.8%
x264 [info]: direct mvs spatial:96.3% temporal:3.7%
x264 [info]: coded y,uvDC,uvAC intra: 86.1% 78.6% 61.5% inter: 34.6% 26.2% 12.3%
x264 [info]: i16 v,h,dc,p: 48% 19% 8% 25%
x264 [info]: i8 v,h,dc,ddl,ddr,vr,hd,vl,hu: 8% 8% 10% 10% 14% 12% 13% 12% 14%
x264 [info]: i4 v,h,dc,ddl,ddr,vr,hd,vl,hu: 8% 9% 13% 8% 14% 12% 13% 10% 14%
x264 [info]: i8c dc,h,v,p: 44% 27% 16% 14%
x264 [info]: Weighted P-Frames: Y:8.6% UV:3.9%
x264 [info]: ref P L0: 47.0% 13.0% 17.2% 6.4% 5.2% 3.6% 3.3% 1.9% 2.0% 0.4% 0.0%
x264 [info]: ref B L0: 78.5% 10.9% 4.4% 2.3% 1.6% 1.3% 0.7% 0.3%
x264 [info]: ref B L1: 94.4% 5.6%
x264 [info]: kb/s:4171.49

Скриншоты

Скачать

Скачать торрент!

Как скачивать? · Что такое торрент? · Рейтинг и ограничения

Сайт не распространяет и не хранит электронные версии произведений, а лишь предоставляет доступ к создаваемому пользователями каталогу ссылок на торрент-файлы, которые содержат только списки хеш-сумм

[Профиль] [ЛС]
Показать сообщения:    
Ответить на тему

Текущее время: Сегодня 08:03

Часовой пояс: GMT + 4



Вы не можете начинать темы
Вы не можете отвечать на сообщения
Вы не можете редактировать свои сообщения
Вы не можете удалять свои сообщения
Вы не можете голосовать в опросах
Вы не можете прикреплять файлы к сообщениям
Вы не можете скачивать файлы