Джек Фрост / Jack Frost (Трой Миллер / Troy Miller) [1998, США, фэнтези, комедия, драма, семейный, HDTV 1080i] Dub (Варус Видео) + AVO (А. Кашкин (Первомайский)) + Original Eng

Ответить на тему
 
Автор Сообщение

user ®

Стаж: 7 лет 7 месяцев

Сообщений: 20008

Пост Пост: #1 от 14-Янв-2014 02:50

[Цитировать]

Джек Фрост / Jack Frost
Страна: США
Студия: Warner Bros. Pictures
Жанр: фэнтези, комедия, драма, семейный
Год выпуска: 1998
Продолжительность: 01:41:16
Перевод 1: Профессиональный (дублированный) Варус Видео
Перевод 2: Авторский (одноголосый закадровый) А. Кашкин (Первомайский)
Cубтитры: нет
Оригинальная аудиодорожка: английская
Режиссер: Трой Миллер / Troy Miller
В ролях: Майкл Китон /Michael Keaton/, Келли Престон /Kelly Preston/, Джозеф Кросс /Joseph Cross/, Марк Эдди /Mark Addy/, Эндрю Лоуренс /Andrew Lawrence/, Эли Мариентал /Eli Marienthal/, Уилл Ротхаар /Will Rothhaar/, Мика Бурем /Mika Boorem/, Бенжамин Брок /Benjamin Brock/, Тейлор Хэндли /Taylor Handley/
Описание: Джек Фрост, большая часть жизни которого проходит в разъездах, почти не видится со своим любимым сыном Чарли. Джек погибает в автомобильной катастрофе, но судьба дарит ему еще один шанс. Шанс вернуться. На этот раз в качестве… снеговика. Невероятные приключения начинаются…

Сэмпл: http://yadi.sk/d/xQhSfqEBFw3a7
Тип релиза: HDTV 1080i
Контейнер: TS
Видео: V_MPEG2, 1920x1080, 29.97fps , 16:9 , 17,1 Мбит/сек
Аудио 1: Dolby Digital Audio Russian 192 kbps 2.0 / 48 kHz
Аудио 2: Dolby Digital Audio Russian 224 kbps 2.0 / 48 kHz
Аудио 3: Dolby Digital Audio English 384 kbps 5.1 / 48 kHz

MediaInfo

Формат : MPEG-TS
Размер файла : 13,4 Гбайт
Продолжительность : 1 ч. 41 м.
Режим общего битрейта : Переменный
Общий поток : 18,9 Мбит/сек
Максимальный общий битрейт : 35,5 Мбит/сек
Видео
Идентификатор : 4113 (0x1011)
Идентификатор меню : 1 (0x1)
Формат : MPEG Video
Версия формата : Version 2
Профиль формата : Main@High
Параметр BVOP формата : Да
Параметр матрицы формата : Выборочная
Параметр GOP формата : M=3, N=15
Идентификатор кодека : 2
Продолжительность : 1 ч. 41 м.
Вид битрейта : Переменный
Битрейт : 17,1 Мбит/сек
Максимальный битрейт : 80,0 Мбит/сек
Ширина : 1920 пикселей
Высота : 1080 пикселей
Соотношение сторон : 16:9
Частота кадров : 29,970 кадров/сек
Цветовое пространство : YUV
Субдискретизация насыщенности : 4:2:0
Битовая глубина : 8 бит
Тип развёртки : Чересстрочная
Порядок развёртки : Верхнее поле первое
Метод сжатия : С потерями
Бит/(Пиксели*Кадры) : 0.276
Временной код первого кадра : 00:00:00;00
Оригинал временного кода : Group of pictures header
Размер потока : 12,1 Гбайт (91%)
Аудио #1
Идентификатор : 4352 (0x1100)
Идентификатор меню : 1 (0x1)
Формат : AC-3
Формат/Информация : Audio Coding 3
Расширение режима : CM (complete main)
Параметр Endianness формата : Big
Идентификатор кодека : 129
Продолжительность : 1 ч. 41 м.
Вид битрейта : Постоянный
Битрейт : 192 Кбит/сек
Каналы : 2 канала
Расположение каналов : Front: L R
Частота : 48,0 КГц
Битовая глубина : 16 бит
Метод сжатия : С потерями
Размер потока : 139 Мбайт (1%)
Язык : Russian
Аудио #2
Идентификатор : 4353 (0x1101)
Идентификатор меню : 1 (0x1)
Формат : AC-3
Формат/Информация : Audio Coding 3
Расширение режима : CM (complete main)
Параметр Endianness формата : Big
Идентификатор кодека : 129
Продолжительность : 1 ч. 41 м.
Вид битрейта : Постоянный
Битрейт : 224 Кбит/сек
Каналы : 2 канала
Расположение каналов : Front: L R
Частота : 48,0 КГц
Битовая глубина : 16 бит
Метод сжатия : С потерями
Размер потока : 162 Мбайт (1%)
Язык : Russian
Аудио #3
Идентификатор : 4354 (0x1102)
Идентификатор меню : 1 (0x1)
Формат : AC-3
Формат/Информация : Audio Coding 3
Расширение режима : CM (complete main)
Параметр Endianness формата : Big
Идентификатор кодека : 129
Продолжительность : 1 ч. 41 м.
Вид битрейта : Постоянный
Битрейт : 384 Кбит/сек
Каналы : 6 каналов
Расположение каналов : Front: L C R, Side: L R, LFE
Частота : 48,0 КГц
Битовая глубина : 16 бит
Метод сжатия : С потерями
Размер потока : 278 Мбайт (2%)
Язык : English
Текст #1
Идентификатор : 4113 (0x1011)-CC1
Идентификатор меню : 1 (0x1)
Формат : EIA-608
Режим смешивания : A/53 / DTVCC Transport
Режим смешивания, доп. информация : Muxed in Video #1
Продолжительность : 1 ч. 41 м.
Вид битрейта : Постоянный
Размер потока : 0,00 байт (0%)
Текст #2
Идентификатор : 4113 (0x1011)-1
Идентификатор меню : 1 (0x1)
Формат : EIA-708
Режим смешивания : A/53 / DTVCC Transport
Режим смешивания, доп. информация : Muxed in Video #1
Продолжительность : 1 ч. 41 м.
Вид битрейта : Постоянный
Размер потока : 0,00 байт (0%)

Скриншоты

Скачать

Скачать торрент!

Как скачивать? · Что такое торрент? · Рейтинг и ограничения

Сайт не распространяет и не хранит электронные версии произведений, а лишь предоставляет доступ к создаваемому пользователями каталогу ссылок на торрент-файлы, которые содержат только списки хеш-сумм

[Профиль] [ЛС]
Показать сообщения:    
Ответить на тему

Текущее время: Сегодня 12:49

Часовой пояс: GMT + 4



Вы не можете начинать темы
Вы не можете отвечать на сообщения
Вы не можете редактировать свои сообщения
Вы не можете удалять свои сообщения
Вы не можете голосовать в опросах
Вы не можете прикреплять файлы к сообщениям
Вы не можете скачивать файлы