Маменькин сыночек / Водонос / The Waterboy (Фрэнк Корачи / Frank Coraci) [1998 г., США, комедия, спорт, BDRemux 1080p] Dub + AVO (Санаев) + Original Eng + Subs (Rus, Eng)

Ответить на тему
 
Автор Сообщение

user ®

Стаж: 7 лет 7 месяцев

Сообщений: 20008

Пост Пост: #1 от 13-Янв-2014 23:40

[Цитировать]

Маменькин сыночекThe Waterboy«Everybody will feel his pain November 6»-- Страна: США
Жанр: комедия, спорт
Год выпуска: 1998
Продолжительность: 01:29:39--Перевод: Профессиональный (полное дублирование)
Перевод: Авторский (Санаев Павел)
Субтитры: русские, английские
Оригинальная аудиодорожка: английский
Режиссер: Фрэнк Корачи / Frank Coraci
В ролях:
Адам Сэндлер (Robert «Bobby» Boucher Jr.), Кэти Бейтс (Helen «Mama» Boucher), Файруза Балк (Vicki Vallencourt), Генри Уинклер (Coach Klein), Джерри Рид (Coach Red Beaulieu), Ларри Джиллиард мл.[/url] (Derek Wallace), Блейк Кларк (Farmer Fran), Питер Данте (Gee Grenouille), Джонатан Лоугрэн (Lyle Robideaux),Аль Уайтинг (Casey Bugge), Клинт Ховард(Paco), Аллен Коверт (Walter)--Описание: Великовозрастный балбес Бобби Буше все тридцать лет своей жизни делал то, что ему велела мамочка. В результате он сделал блестящую карьеру... в качестве разносчика воды для футбольной команды. Маменькин сынок так бы и остался в тени чемпионов, если бы новый тренер вдруг не заметил, что этот мальчик на побегушках слишком быстро бегает.
Мудрый наставник приглашает его в команду и на глазах изумленной публики неприметный Бобби становится настоящей звездой! Но ведь он достиг грандиозных успехов за маминой спиной. Значит, вскоре Бобби предстоит столкнуться с ней лицом к лицу...--
MPAA: PG-13 - Детям до 13 лет просмотр не желателен-Тип релиза: BDRemux 1080p
Контейнер: MKV
Видео: AVC, 1920x1080 (16:9), 22558 kbps, 23,976 fps, 0,454 bpp
Аудио №1: русский / AC3 / 5.1 / 48 kHz / 640 kbps / 16 bit (Dub)
Аудио №2: русский / AC3 / 5.1 / 48 kHz / 448 kbps / 16 bit AVO (Санев)
Аудио №3: английский / DTS-HD Master Audio / 4308 kbps / 5.1 / 48 kHz / 4308 kbps / 24-bit (DTS Core: 5.1 / 48 kHz / 1509 kbps / 24-bit)
Навигация по главам: есть-

Скриншоты

Media Info

General
Unique ID : 186117220717716324727339190115661849339 (0x8C04DF7366CBA47EA444C7F026D522FB)
Complete name : E:\Mamenkin.synochek.1998.BDRemux 1080p.mkv
Format : Matroska
Format version : Version 4 / Version 2
File size : 16.1 GiB
Duration : 1h 29mn
Overall bit rate mode : Variable
Overall bit rate : 25.7 Mbps
Encoded date : UTC 2014-01-13 10:59:55
Writing application : mkvmerge v6.2.0 ('Promised Land') built on Apr 28 2013 12:22:01
Writing library : libebml v1.3.0 + libmatroska v1.4.0
Video
ID : 1
Format : AVC
Format/Info : Advanced Video Codec
Format profile : High@L4.1
Format settings, CABAC : Yes
Format settings, ReFrames : 4 frames
Codec ID : V_MPEG4/ISO/AVC
Duration : 1h 29mn
Bit rate mode : Variable
Bit rate : 22.6 Mbps
Maximum bit rate : 36.0 Mbps
Width : 1 920 pixels
Height : 1 080 pixels
Display aspect ratio : 16:9
Frame rate : 23.976 fps
Color space : YUV
Chroma subsampling : 4:2:0
Bit depth : 8 bits
Scan type : Progressive
Bits/(Pixel*Frame) : 0.454
Stream size : 14.1 GiB (88%)
Default : Yes
Forced : No
Color primaries : BT.709-5, BT.1361, IEC 61966-2-4, SMPTE RP177
Transfer characteristics : BT.709-5, BT.1361
Matrix coefficients : BT.709-5, BT.1361, IEC 61966-2-4 709, SMPTE RP177
Audio #1
ID : 2
Format : AC-3
Format/Info : Audio Coding 3
Mode extension : CM (complete main)
Codec ID : A_AC3
Duration : 1h 29mn
Bit rate mode : Constant
Bit rate : 640 Kbps
Channel(s) : 6 channels
Channel positions : Front: L C R, Side: L R, LFE
Sampling rate : 48.0 KHz
Bit depth : 16 bits
Compression mode : Lossy
Stream size : 410 MiB (2%)
Title : Дублированный
Language : Russian
Default : Yes
Forced : No
Audio #2
ID : 3
Format : AC-3
Format/Info : Audio Coding 3
Mode extension : CM (complete main)
Codec ID : A_AC3
Duration : 1h 29mn
Bit rate mode : Constant
Bit rate : 448 Kbps
Channel(s) : 6 channels
Channel positions : Front: L C R, Side: L R, LFE
Sampling rate : 48.0 KHz
Bit depth : 16 bits
Compression mode : Lossy
Stream size : 287 MiB (2%)
Title : Авторский (Санев)
Language : Russian
Default : No
Forced : No
Audio #3
ID : 4
Format : DTS
Format/Info : Digital Theater Systems
Format profile : MA / Core
Codec ID : A_DTS
Duration : 1h 29mn
Bit rate mode : Variable
Bit rate : 1 576 Kbps / 1 510 Kbps
Channel(s) : 6 channels
Channel positions : Front: L C R, Side: L R, LFE
Sampling rate : 48.0 KHz
Bit depth : 24 bits
Compression mode : Lossless / Lossy
Language : English
Default : No
Forced : No
Text #1
ID : 5
Format : UTF-8
Codec ID : S_TEXT/UTF8
Codec ID/Info : UTF-8 Plain Text
Language : Russian
Default : No
Forced : No
Text #2
ID : 6
Format : UTF-8
Codec ID : S_TEXT/UTF8
Codec ID/Info : UTF-8 Plain Text
Language : English
Default : No
Forced : No
Menu
00:00:00.000 : en:00:00:00.000
00:01:07.067 : en:00:01:07.067
00:03:21.576 : en:00:03:21.576
00:07:49.219 : en:00:07:49.219
00:10:40.306 : en:00:10:40.306
00:16:10.136 : en:00:16:10.136
00:19:43.891 : en:00:19:43.891
00:24:00.272 : en:00:24:00.272
00:26:19.286 : en:00:26:19.286
00:31:11.912 : en:00:31:11.912
00:36:35.485 : en:00:36:35.485
00:40:56.037 : en:00:40:56.037
00:41:43.918 : en:00:41:43.918
00:44:46.642 : en:00:44:46.642
00:47:09.744 : en:00:47:09.744
00:52:08.292 : en:00:52:08.292
00:55:58.939 : en:00:55:58.939
00:59:33.111 : en:00:59:33.111
01:02:08.308 : en:01:02:08.308
01:07:31.297 : en:01:07:31.297
01:10:25.054 : en:01:10:25.054
01:13:51.969 : en:01:13:51.969
01:20:46.300 : en:01:20:46.300
01:24:04.331 : en:01:24:04.331
01:25:33.837 : en:01:25:33.837
Скачать

Скачать торрент!

Как скачивать? · Что такое торрент? · Рейтинг и ограничения

Сайт не распространяет и не хранит электронные версии произведений, а лишь предоставляет доступ к создаваемому пользователями каталогу ссылок на торрент-файлы, которые содержат только списки хеш-сумм

[Профиль] [ЛС]
Показать сообщения:    
Ответить на тему

Текущее время: Сегодня 19:42

Часовой пояс: GMT + 4



Вы не можете начинать темы
Вы не можете отвечать на сообщения
Вы не можете редактировать свои сообщения
Вы не можете удалять свои сообщения
Вы не можете голосовать в опросах
Вы не можете прикреплять файлы к сообщениям
Вы не можете скачивать файлы