Дом 3: Шоу ужасов / The Horror Show (Джеймс Исаак / James Isaac, Дэвид Блит / David Blyth) [1989, США, Ужасы, BDRemux 1080p] AVO (Визгунов) + Sub Eng + Original Eng

Ответить на тему
 
Автор Сообщение

user ®

Стаж: 7 лет 7 месяцев

Сообщений: 20008

Пост Пост: #1 от 13-Янв-2014 23:40

[Цитировать]

Дом 3: Шоу ужасов / The Horror Show- Страна: США
Жанр: Ужасы
Год выпуска: 1989
Продолжительность: 01:34:22-Перевод: Авторский (одноголосый закадровый) Визгунов
Cубтитры: английские
Оригинальная аудиодорожка: английский-Режиссер: Джеймс Исаак / James Isaac, Дэвид Блит / David Blyth-В ролях: Лэнс Хенриксен, Брайон Джеймс, Рита Таггарт, Диди Пфайффер, Арон Эйзенберг, Том Брэй, Мэтт Кларк, Дэвид Оливер, Терри Александр, Льюис Аркетт-Описание: Убийца мистическим образом оживает и мстит семье полицейского, арестовавшего его. Их сны превращаются в жуткие кошмары…-Релиз от: - -Тип релиза: BDRemux 1080p
Контейнер: MKV-Видео: MPEG-4 AVC, 29430 Кбит/с, 1920x1080, 23.976 кадр/с
Аудио: 48 kHz, AC3 Dolby Digital, 2/0 (L,R) ch, ~192 kbps (Rus)
Аудио 2: English, Неизвестно / 1509 Кбит/сек, 48,0 КГц, 24 бит, 2 канала, DTS

MediaInfo

Format : Matroska
Format version : Version 4 / Version 2
File size : 20.9 GiB
Duration : 1h 34mn
Overall bit rate : 31.7 Mbps
Encoded date : UTC 2013-12-12 12:26:00
Writing application : mkvmerge v6.1.0 ('Old Devil') built on Mar 4 2013 09:10:42
Writing library : libebml v1.3.0 + libmatroska v1.4.0
Video
ID : 1
Format : AVC
Format/Info : Advanced Video Codec
Format profile : High@L4.1
Format settings, CABAC : Yes
Format settings, ReFrames : 3 frames
Format settings, GOP : M=3, N=12
Codec ID : V_MPEG4/ISO/AVC
Duration : 1h 34mn
Bit rate mode : Variable
Bit rate : 29.3 Mbps
Maximum bit rate : 35.0 Mbps
Width : 1 920 pixels
Height : 1 080 pixels
Display aspect ratio : 16:9
Frame rate : 23.976 fps
Standard : NTSC
Color space : YUV
Chroma subsampling : 4:2:0
Bit depth : 8 bits
Scan type : Progressive
Bits/(Pixel*Frame) : 0.590
Stream size : 19.3 GiB (92%)
Color primaries : BT.709-5, BT.1361, IEC 61966-2-4, SMPTE RP177
Transfer characteristics : BT.709-5, BT.1361
Matrix coefficients : BT.709-5, BT.1361, IEC 61966-2-4 709, SMPTE RP177
Audio #1
ID : 2
Format : AC-3
Format/Info : Audio Coding 3
Mode extension : CM (complete main)
Codec ID : A_AC3
Duration : 1h 34mn
Bit rate mode : Constant
Bit rate : 192 Kbps
Channel(s) : 2 channels
Channel positions : Front: L R
Sampling rate : 48.0 KHz
Bit depth : 16 bits
Compression mode : Lossy
Stream size : 130 MiB (1%)
Title : Авторский одноголосый (Сергей Визгунов)
Language : Russian
Audio #2
ID : 3
Format : DTS
Format/Info : Digital Theater Systems
Format profile : MA / Core
Codec ID : A_DTS
Duration : 1h 34mn
Bit rate mode : Variable
Bit rate : 1 558 Kbps / 1 510 Kbps
Channel(s) : 2 channels
Channel positions : Front: L R
Sampling rate : 48.0 KHz
Bit depth : 24 bits
Compression mode : Lossless / Lossy
Language : English
Text
ID : 4
Format : UTF-8
Codec ID : S_TEXT/UTF8
Codec ID/Info : UTF-8 Plain Text
Language : English
Menu
00:00:00.000 : :Chapter 01
00:02:43.163 : :Chapter 02
00:13:57.419 : :Chapter 03
00:22:35.854 : :Chapter 04
00:30:55.937 : :Chapter 05
00:40:40.062 : :Chapter 06
00:51:49.815 : :Chapter 07
00:59:46.874 : :Chapter 08
01:12:28.302 : :Chapter 09
01:19:20.714 : :Chapter 10
01:31:02.290 : :Chapter 11

Скриншоты

Скачать

Скачать торрент!

Как скачивать? · Что такое торрент? · Рейтинг и ограничения

Сайт не распространяет и не хранит электронные версии произведений, а лишь предоставляет доступ к создаваемому пользователями каталогу ссылок на торрент-файлы, которые содержат только списки хеш-сумм

[Профиль] [ЛС]
Показать сообщения:    
Ответить на тему

Текущее время: Сегодня 15:53

Часовой пояс: GMT + 4



Вы не можете начинать темы
Вы не можете отвечать на сообщения
Вы не можете редактировать свои сообщения
Вы не можете удалять свои сообщения
Вы не можете голосовать в опросах
Вы не можете прикреплять файлы к сообщениям
Вы не можете скачивать файлы