Приступить к ликвидации (Борис Григорьев) [1983, Боевик, детектив, драма, DVDRip-AVC]

Ответить на тему
 
Автор Сообщение

user ®

Стаж: 7 лет 7 месяцев

Сообщений: 20008

Пост Пост: #1 от 13-Янв-2014 14:40

[Цитировать]

Приступить к ликвидации
Жанр: Боевик, детектив, драма
Год выпуска: 1983
Продолжительность: 02:06:42
Режиссёр: Борис Григорьев
В ролях: Олег Стриженов, Михаил Жигалов, Василий Лановой, Валерий Войтюк, Георгий Юматов, Надежда Бутырцева, Александр Филиппенко, Ольга Сирина, Владимир Гусев, Леонид Белозорович
Описание: Весна 1945 года. Близится к концу Великая Отечественная война. Неспокойно в Западной Белоруссии. Там действует жестокая банда бывшего пособника нацистов Болеслава Крука. Бандиты не жалеют никого, в том числе и женщин, и детей, убивая, грабя и поджигая колхозные угодья. Свои щупальца банда протянула аж до Москвы, где имеет своих доверенных людей, снабжающих их награбленным барахлом.
Раскручивая убийство одного из московских пособников бандитов, начальник отдела по борьбе с бандитизмом подполковник Иван Данилов со своей опергруппой постепенно восстанавливает всю цепочку преступлений, арестовывая, или уничтожая одного за другим членов банды…
Доп. информация:
[url=http://***/forum/viewtopic.php?t=507278]Исходник DVD-9[/url]
Качество видео: DVDRip-AVC
Формат видео: MKV
Видео: 700x418@747x418, (1,78:1), 25 fps, ~2071 kbps
Аудио: 48 kHz, AC3 Dolby Digital, 3/2 (L,C,R,l,r) + LFE ch, ~384.00 kbps

MediaInfo

raw [info]: 700x418p 16:15 @ 25/1 fps (cfr)
x264 [info]: using SAR=16/15
x264 [info]: using cpu capabilities: MMX2 SSE2Fast SSSE3 SSE4.2 AVX
x264 [info]: profile High, level 4.1
x264 [info]: frame I:485 Avg QP:19.37 size: 36245
x264 [info]: frame P:19703 Avg QP:22.19 size: 16779
x264 [info]: frame B:74471 Avg QP:23.44 size: 8488-Общее
Уникальный идентификатор : 246951339613427116474115097576249009679 (0xB9C9191502016928910BE9DB657CA60F)
Полное имя : F:\DVD\Приступить к ликвидации_1983-DVDRip-AVC.mkv
Формат : Matroska
Версия формата : Version 2
Размер файла : 2,17 Гбайт
Продолжительность : 2 ч. 6 м.
Общий поток : 2457 Кбит/сек
Дата кодирования : UTC 2014-01-13 06:48:31
Программа кодирования : mkvmerge v5.1.0 ('And so it goes') built on Nov 28 2011 23:58:28
Библиотека кодирования : libebml v1.2.3 + libmatroska v1.3.0
Видео
Идентификатор : 1
Формат : AVC
Формат/Информация : Advanced Video Codec
Профиль формата : High@L4.1
Параметр CABAC формата : Да
Параметр ReFrames формата : 16 кадров
Идентификатор кодека : V_MPEG4/ISO/AVC
Продолжительность : 2 ч. 6 м.
Битрейт : 2071 Кбит/сек
Ширина : 700 пикселей
Высота : 418 пикселей
Соотношение сторон : 16:9
Соотношение сторон в оригинале : 16:9
Режим частоты кадров : Постоянный
Частота кадров : 25,000 кадров/сек
Цветовое пространство : YUV
Субдискретизация насыщенности : 4:2:0
Битовая глубина : 8 бит
Тип развёртки : Прогрессивная
Бит/(Пиксели*Кадры) : 0.283
Размер потока : 1,79 Гбайт (82%)
Библиотека кодирования : x264 core 133 r2334 a3ac64b
Настройки программы : cabac=1 / ref=16 / deblock=1:-1:-1 / analyse=0x3:0x133 / me=umh / subme=11 / psy=1 / psy_rd=1.10:0.20 / mixed_ref=1 / me_range=24 / chroma_me=1 / trellis=2 / 8x8dct=1 / cqm=0 / deadzone=21,11 / fast_pskip=0 / chroma_qp_offset=-3 / threads=12 / lookahead_threads=3 / sliced_threads=0 / nr=0 / decimate=0 / interlaced=0 / bluray_compat=0 / constrained_intra=0 / bframes=11 / b_pyramid=2 / b_adapt=2 / b_bias=0 / direct=3 / weightb=1 / open_gop=0 / weightp=2 / keyint=250 / keyint_min=25 / scenecut=40 / intra_refresh=0 / rc_lookahead=65 / rc=2pass / mbtree=1 / bitrate=2071 / ratetol=1.0 / qcomp=0.70 / qpmin=0 / qpmax=41 / qpstep=4 / cplxblur=20.0 / qblur=0.5 / ip_ratio=1.35 / aq=1:1.00
Default : Да
Forced : Нет
Основные цвета : BT.601 PAL
Характеристики трансфера : BT.470 System B, BT.470 System G
Коэффициенты матрицы : BT.601
Аудио
Идентификатор : 2
Формат : AC-3
Формат/Информация : Audio Coding 3
Расширение режима : CM (complete main)
Параметр Endianness формата : Big
Идентификатор кодека : A_AC3
Продолжительность : 2 ч. 6 м.
Вид битрейта : Постоянный
Битрейт : 384 Кбит/сек
Каналы : 6 каналов
Расположение каналов : Front: L C R, Side: L R, LFE
Частота : 48,0 КГц
Битовая глубина : 16 бит
Метод сжатия : С потерями
Размер потока : 348 Мбайт (16%)
Язык : Russian
Default : Да
Forced : Нет
Скачать

Скачать торрент!

Как скачивать? · Что такое торрент? · Рейтинг и ограничения

Сайт не распространяет и не хранит электронные версии произведений, а лишь предоставляет доступ к создаваемому пользователями каталогу ссылок на торрент-файлы, которые содержат только списки хеш-сумм

[Профиль] [ЛС]
Показать сообщения:    
Ответить на тему

Текущее время: Сегодня 10:57

Часовой пояс: GMT + 4



Вы не можете начинать темы
Вы не можете отвечать на сообщения
Вы не можете редактировать свои сообщения
Вы не можете удалять свои сообщения
Вы не можете голосовать в опросах
Вы не можете прикреплять файлы к сообщениям
Вы не можете скачивать файлы