Запаска / Spare / Seupeeo (Сон Хан Ли / Seong-han Lee) [2008, Южная Корея, Криминал, Комедия, DVDRip] DVO

Ответить на тему
 
Автор Сообщение

user ®

Стаж: 11 лет

Сообщений: 15151

Пост Пост: #1 от 13-Янв-2014 08:20

[Цитировать]

Запаска / Spare / Seupeeo
Год выпуска: 2008
Страна: Южная Корея
Жанр: Криминал, Комедия
Продолжительность: 01:39:53
Озвучено: Любительский (двухголосый, закадровый) DeadSno & den904
Перевод: Skyworker
Работа со звуком: Гуннлауг
Режиссёр: Сон Хан Ли/ Seong-han Lee
В ролях: Чжон Ву / Jeong Woo, Лим Чжон-иль / Lim Joon-il, Ким Су-хьён / Kim Su-hyeon, Ян Джи-вон / Yang Gi-won, Со Чжи-О / Seo Ji-ho...
Описание: Гван-тэ решает продать печень , чтобы расплатиться с крупным займом и просит своего друга, Гиль-до, о помощи. Но из-за хитрости Гиль-до, Гван-тэ переходит дорогу якудза ...Теперь Гван-тэ нужно спасать не только свою печень, но и жизнь.
Релиз группы:

Качество: DVDRip
Формат: AVI
Видео кодек: Xvid
Аудио кодек: AC3
Видео: Xvid, 704x384 (1.83:1), 16:9, 29.970, 1895 kb/s, 0.234 bits/pixel
Аудио: AC3, 48 kHz, 2 channels, 192 kbps

Скриншоты

MI

Complete name                            : Spare.avi
Format                                   : AVI
Format/Info                              : Audio Video Interleave
File size                                : 1.46 GiB
Duration                                 : 1h 39mn
Overall bit rate                         : 2 094 Kbps
Writing application                      : VirtualDubModRus 1.5.10.2 (build 2542/release)
Writing library                          : VirtualDubMod build 2542/release
Video
ID                                       : 0
Format                                   : MPEG-4 Visual
Format profile                           : Advanced Simple@L5
Format settings, BVOP                    : 1
Format settings, QPel                    : No
Format settings, GMC                     : No warppoints
Format settings, Matrix                  : Custom
Codec ID                                 : XVID
Codec ID/Hint                            : XviD
Duration                                 : 1h 39mn
Bit rate                                 : 1 891 Kbps
Width                                    : 704 pixels
Height                                   : 384 pixels
Display aspect ratio                     : 1.85:1
Frame rate                               : 29.970 fps
Color space                              : YUV
Chroma subsampling                       : 4:2:0
Bit depth                                : 8 bits
Scan type                                : Progressive
Compression mode                         : Lossy
Bits/(Pixel*Frame)                       : 0.233
Stream size                              : 1.32 GiB (90%)
Writing library                          : XviD 1.1.2 (UTC 2006-11-01)
Audio
ID                                       : 1
Format                                   : AC-3
Format/Info                              : Audio Coding 3
Mode extension                           : CM (complete main)
Format settings, Endianness              : Big
Codec ID                                 : 2000
Duration                                 : 1h 39mn
Bit rate mode                            : Constant
Bit rate                                 : 192 Kbps
Channel(s)                               : 2 channels
Channel positions                        : Front: L R
Sampling rate                            : 48.0 KHz
Bit depth                                : 16 bits
Compression mode                         : Lossy
Stream size                              : 137 MiB (9%)
Alignment                                : Split accross interleaves
Interleave, duration                     : 33 ms (1.00 video frame)
Interleave, preload duration             : 500 ms
Скачать

Скачать торрент! Запаска / Spare / Seupeeo (Сон Хан Ли / Seong-han Lee) [2008, Южная Корея, Криминал, Комедия, DVDRip] DVO

Как скачивать? · Что такое торрент? · Рейтинг и ограничения

Сайт не распространяет и не хранит электронные версии произведений, а лишь предоставляет доступ к создаваемому пользователями каталогу ссылок на торрент-файлы, которые содержат только списки хеш-сумм

[Профиль] [ЛС]
Показать сообщения:    
Ответить на тему

Текущее время: Сегодня 16:31

Часовой пояс: GMT + 4



Вы не можете начинать темы
Вы не можете отвечать на сообщения
Вы не можете редактировать свои сообщения
Вы не можете удалять свои сообщения
Вы не можете голосовать в опросах
Вы не можете прикреплять файлы к сообщениям
Вы не можете скачивать файлы