Долгая разлука / Poo chooda vaa (А. М. Фазиль / A.M. Fazil) [1985, Индия, Мелодрама, VHSRip] Dub

Ответить на тему
 
Автор Сообщение

user ®

Стаж: 13 лет

Сообщений: 15070

Пост Пост: #1 от 12-Янв-2014 20:45

[Цитировать]

Долгая разлука / Poo chooda vaa
Страна: Индия
Жанр: Мелодрама
Год выпуска: 1985
Продолжительность: 02:08
Перевод: Профессиональный (дублированный)
Cубтитры: нет
Режиссер: А. М. Фазиль / A.M. Fazil
В ролях:
Ананд,
Гирдар,
Надия Мойду,
Падмини,
С.В. Секхар
Описание: Пожилая, неприветливая и раздражительная бабушка. Любимая, трагически умершая ее дочь. Впавший в немилость зять. Очаровательная, остроумная, находчивая и современная внучка. И — молодой, красивый, но немного провинциальный сосед…
Доп. информация: «Долгая разлука» (малаял. നോക്കെത്താ ദൂരത്ത് കണ്ണും നട്ട്, Nokkethadhoorathu Kannum Nattu) — индийский фильм 1984 года. Автор сценария и режиссер Фазиль. В этом фильме дебютировала Надия Моиду. Фильм был хорошо встречен критиками и получил награду штата Керала за «Лучший фильм по народной популярности и эстетическим ценностям». Благодаря положительным отзывам критики и коммерческому успеху фильма, Фазиль снял версию фильма на тамильском языке «Poove Poo Chooda Va», в которой Надия Моиду и Падмини исполнили свои роли. Остальные роли исполнили другие актеры.
Качество видео: VHSRip
Формат видео: MPG
Видео: MPG, 352x288, 25 кадр/сек, 1252 Кбит/сек
Аудио: 48 кГц, Audio Coding 3, 2 канала(ов), 256 Кбит/сек

MediaInfo

General
Complete name : C:\30на30\Dolgaya.Razluka.1985.mpg
Format : MPEG-PS
File size : 1.38 GiB
Duration : 2h 8mn
Overall bit rate : 1 539 Kbps
Writing library : (c) 1998-2008 Womble Multimedia, Inc. / MPEG Video Wizard (08/2008) / Dec 31 2008
Video
ID : 224 (0xE0)
Format : MPEG Video
Format version : Version 2
Format profile : Main@Main
Format settings, BVOP : Yes
Format settings, Matrix : Default
Duration : 2h 8mn
Bit rate mode : Variable
Bit rate : 1 252 Kbps
Nominal bit rate : 2 600 Kbps
Width : 352 pixels
Height : 288 pixels
Display aspect ratio : 4:3
Frame rate : 25.000 fps
Standard : PAL
Color space : YUV
Chroma subsampling : 4:2:0
Bit depth : 8 bits
Scan type : Progressive
Bits/(Pixel*Frame) : 0.494
Stream size : 1.12 GiB (81%)
Writing library : (c) 1998-2008 Womble Multimedia, Inc. / MPEG Video Wizard (08/2008) / Dec 31 2008
Audio
ID : 128 (0x80)
Format : AC-3
Format/Info : Audio Coding 3
Mode extension : CM (complete main)
Duration : 2h 8mn
Bit rate mode : Constant
Bit rate : 256 Kbps
Channel(s) : 2 channels
Channel positions : Front: L R
Sampling rate : 48.0 KHz
Video delay : -80ms
Stream size : 235 MiB (17%)

Скриншот c названием фильма

Скриншоты

Скачать

Скачать торрент! Долгая разлука / Poo chooda vaa (А. М. Фазиль / A.M. Fazil) [1985, Индия, Мелодрама, VHSRip] Dub

Как скачивать? · Что такое торрент? · Рейтинг и ограничения

Сайт не распространяет и не хранит электронные версии произведений, а лишь предоставляет доступ к создаваемому пользователями каталогу ссылок на торрент-файлы, которые содержат только списки хеш-сумм

[Профиль] [ЛС]
Показать сообщения:    
Ответить на тему

Текущее время: Сегодня 15:18

Часовой пояс: GMT + 4



Вы не можете начинать темы
Вы не можете отвечать на сообщения
Вы не можете редактировать свои сообщения
Вы не можете удалять свои сообщения
Вы не можете голосовать в опросах
Вы не можете прикреплять файлы к сообщениям
Вы не можете скачивать файлы